  0
SECTION
  2
HEADER
  9
$ACADVER
  1
AC1009
  9
$ANGBASE
 50
0.0000000000
  9
$ANGDIR
 70
     0
  9
$ATTDIA
 70
     0
  9
$ATTMODE
 70
     1
  9
$ATTREQ
 70
     1
  9
$AUNITS
 70
     0
  9
$AUPREC
 70
     0
  9
$AXISMODE
 70
     0
  9
$AXISUNIT
 10
0.0000000000
 20
0.0000000000
  9
$BLIPMODE
 70
     1
  9
$CECOLOR
 62
   256
  9
$CELTYPE
  6
BYLAYER
  9
$CHAMFERA
 40
0.0000000000
  9
$CHAMFERB
 40
0.0000000000
  9
$CLAYER
  8
0
  9
$COORDS
 70
     0
  9
$DIMALT
 70
     0
  9
$DIMALTD
 70
     2
  9
$DIMALTF
 40
25.4000000000
  9
$DIMAPOST
  1

  9
$DIMASO
 70
     1
  9
$DIMASZ
 40
0.1538774405
  9
$DIMBLK
  1

  9
$DIMBLK1
  1

  9
$DIMBLK2
  1

  9
$DIMCEN
 40
9.0000000000E-02
  9
$DIMDLE
 40
0.0000000000
  9
$DIMDLI
 40
0.3800000000
  9
$DIMEXE
 40
0.1500000060
  9
$DIMEXO
 40
0.1000000015
  9
$DIMLFAC
 40
1.0000000000
  9
$DIMLIM
 70
     0
  9
$DIMPOST
  1

  9
$DIMRND
 40
0.0000000000
  9
$DIMSCALE
 40
1.0000000000
  9
$DIMSE1
 70
     0
  9
$DIMSE2
 70
     0
  9
$DIMSHO
 70
     0
  9
$DIMTAD
 70
     0
  9
$DIMTIH
 70
     0
  9
$DIMTM
 40
0.0000000000
  9
$DIMTOH
 70
     1
  9
$DIMTOL
 70
     0
  9
$DIMTP
 40
0.0000000000
  9
$DIMTSZ
 40
0.0000000000
  9
$DIMTXT
 40
0.1199999973
  9
$DIMZIN
 70
     0
  9
$DRAGMODE
 70
     1
  9
$DWGCODEPAGE
  3
ansi_1252
  9
$ELEVATION
 40
0.0000000000
  9
$EXTMAX
 10
8.6540231705
 20
2.9018745422
 30
0.0000000000
  9
$EXTMIN
 10
-2.5959765911
 20
-5.8481259346
 30
0.0000000000
  9
$FASTZOOM
 70
     1
  9
$FILLETRAD
 40
6.2500000000E-02
  9
$FILLMODE
 70
     1
  9
$GRIDMODE
 70
     0
  9
$GRIDUNIT
 10
0.0000000000
 20
0.0000000000
  9
$INSBASE
 10
0.0000000000
 20
0.0000000000
 30
0.0000000000
  9
$LIMCHECK
 70
     0
  9
$LIMMAX
 10
8.6540231705
 20
2.9018745422
  9
$LIMMIN
 10
-2.5959765911
 20
-5.8481259346
  9
$LTSCALE
 40
1.0000000000
  9
$LUNITS
 70
     2
  9
$LUPREC
 70
     3
  9
$MEASUREMENT
 70
     0
  9
$MENU
  1
ACAD
  9
$MIRRTEXT
 70
     0
  9
$ORTHOMODE
 70
     0
  9
$OSMODE
 70
     0
  9
$PDMODE
 70
     0
  9
$PDSIZE
 40
0.0000000000
  9
$PLINEWID
 40
0.0000000000
  9
$PROXYGRAPHICS
 70
     0
  9
$QTEXTMODE
 70
     0
  9
$REGENMODE
 70
     1
  9
$SKETCHINC
 40
0.1000000000
  9
$SKPOLY
 70
     0
  9
$SNAPANG
 50
0.0000000000
  9
$SNAPBASE
 10
0.0000000000
 20
0.0000000000
  9
$SNAPISOPAIR
 70
     0
  9
$SNAPMODE
 70
     0
  9
$SNAPSTYLE
 70
     0
  9
$SNAPUNIT
 10
1.0000000000
 20
1.0000000000
  9
$SPLFRAME
 70
     0
  9
$SPLINESEGS
 70
     8
  9
$TDCREATE
 40
2453313.4026388934
  9
$TDINDWG
 40
0.0000000000
  9
$TDUPDATE
 40
2453313.4026388934
  9
$TDUSRTIMER
 40
0.0000000000
  9
$TEXTSIZE
 40
0.1199999973
  9
$TEXTSTYLE
  7
STANDARD
  9
$THICKNESS
 40
0.0000000000
  9
$TRACEWID
 40
5.0000000000E-02
  9
$USERI1
 70
     0
  9
$USERI2
 70
     0
  9
$USERI3
 70
     0
  9
$USERI4
 70
     0
  9
$USERI5
 70
     0
  9
$USERR1
 40
0.0000000000
  9
$USERR2
 40
0.0000000000
  9
$USERR3
 40
0.0000000000
  9
$USERR4
 40
0.0000000000
  9
$USERR5
 40
0.0000000000
  9
$USRTIMER
 70
     1
  9
$VIEWCTR
 10
3.0290232897
 20
-1.4731256962
  9
$VIEWDIR
 10
0.0000000000
 20
0.0000000000
 30
1.0000000000
  9
$VIEWSIZE
 40
8.7500004768
  0
ENDSEC
  0
SECTION
  2
TABLES
  0
TABLE
  2
LTYPE
 70
     3
  0
LTYPE
  2
SOLID
  3
Solid
 70
    64
 72
    65
 73
     0
 40
0.0000000000
  0
LTYPE
  2
CONSTRUCTION
  3
Construction
 70
    64
 72
    65
 73
     2
 40
4.0000000000E-02
 49
1.0000000000E-02
 49
-3.0000000000E-02
  0
LTYPE
  2
GAP
  3
Gap
 70
    64
 72
    65
 73
     3
 40
100.0599999987
 49
0.0000000000
 49
-5.9999998659E-02
 49
100.0000000000
  0
ENDTAB
  0
TABLE
  2
LAYER
 70
     2
  0
LAYER
  2
Layer0$C$L0
 70
     0
  6
SOLID
 62
     2
  0
LAYER
  2
Layer10$C$L10
 70
     0
  6
SOLID
 62
     4
  0
ENDTAB
  0
TABLE
  2
STYLE
 70
     1
  0
STYLE
  2
STANDARD
  3
txt
  4

 40
0.0000000000
 41
1.0000000000
 42
0.1199999973
 50
0.0000000000
 70
     0
 71
     0
  0
ENDTAB
  0
TABLE
  2
DIMSTYLE
 70
     2
  0
DIMSTYLE
  2
STANDARD
 70
     0
  3

  4

  5

  6

  7

 40
1.0000000000
 41
0.1800000000
 42
0.0000000000
 43
0.3800000000
 44
0.0000000000
 45
0.0000000000
 46
0.0000000000
 47
0.0000000000
 48
0.0000000000
140
0.1560000000
141
9.0000000000E-02
142
0.0000000000
143
1.0000000000
144
1.0000000000
145
0.0000000000
146
1.0000000000
147
7.8000000000E-02
 71
     0
 72
     0
 73
     0
 74
     0
 75
     0
 76
     0
 77
     3
 78
     0
170
     0
171
     0
172
     0
173
     0
174
     0
175
     0
176
     0
177
     0
178
     0
270
     2
271
     2
272
     2
273
     2
274
     2
275
     1
280
     0
281
     0
282
     0
283
     1
284
     0
285
     0
286
     0
287
     3
288
     0
  0
DIMSTYLE
  2
DIM1
 70
     1
  3

  4

  5

  6

  7

 40
1.0000000000
 41
0.1538774405
 42
0.1000000015
 43
0.3800000000
 44
0.1500000060
 45
0.0000000000
 46
0.0000000000
 47
0.0000000000
 48
0.0000000000
140
0.1199999973
141
9.0000000000E-02
142
0.0000000000
143
1.0000000000
144
1.0000000000
145
0.0000000000
146
1.0000000000
147
5.9999998659E-02
 71
     0
 72
     0
 73
     1
 74
     1
 75
     0
 76
     0
 77
     0
 78
     0
170
     0
171
     0
172
     0
173
     0
174
     0
175
     0
176
     0
177
     0
178
     0
270
     2
271
     2
272
     2
273
     2
274
     0
275
     1
280
     0
281
     0
282
     0
283
     1
284
     0
285
     0
286
     0
287
     3
288
     0
  0
ENDTAB
  0
TABLE
  2
APPID
  5
1
100
AcDbSymbolTable
 70
     1
  0
APPID
  5
2
100
AcDbSymbolTableRecord
100
AcDbRegAppTableRecord
  2
ACAD
 70
     0
  0
ENDTAB
  0
ENDSEC
  0
SECTION
  2
BLOCKS
  0
BLOCK
  8
Layer10$C$L10
  2
*D0
 70
     1
 10
0.0000000000
 20
0.0000000000
  0
SOLID
  8
Layer10$C$L10
 10
5.387377
 20
-0.745485
 11
5.387377
 21
-0.684617
 12
5.234375
 22
-0.715051
 13
5.234375
 23
-0.715051
  0
SOLID
  8
Layer10$C$L10
 10
6.081373
 20
-0.684617
 11
6.081373
 21
-0.745485
 12
6.234375
 22
-0.715051
 13
6.234375
 23
-0.715051
  0
LINE
  8
Layer10$C$L10
 10
5.234375
 20
-0.715051
 11
6.234375
 21
-0.715051
  0
LINE
  8
Layer10$C$L10
 10
6.234375
 20
-0.715051
 11
6.353278
 21
-0.715051
  0
LINE
  8
Layer10$C$L10
  6
GAP
 10
5.234375
 20
-0.207160
 11
5.234375
 21
-0.865051
  0
LINE
  8
Layer10$C$L10
  6
GAP
 10
6.234375
 20
-0.192035
 11
6.234375
 21
-0.865051
  0
TEXT
  8
Layer10$C$L10
 10
6.413278
 20
-0.775051
 40
0.120000
  1
%%c 1.00
 72
     5
 11
7.132390
 21
-0.775051
  0
TEXT
  8
Layer10$C$L10
 10
6.413278
 20
-0.955051
 40
0.120000
  1
(25.4mm)
 72
     5
 11
7.341190
 21
-0.955051
  0
ENDBLK
  8
Layer10$C$L10
  0
BLOCK
  8
Layer10$C$L10
  2
*D1
 70
     1
 10
0.000000
 20
0.000000
  0
SOLID
  8
Layer10$C$L10
 10
5.518873
 20
1.027354
 11
5.518873
 21
0.966486
 12
5.671875
 22
0.996920
 13
5.671875
 23
0.996920
  0
LINE
  8
Layer10$C$L10
 10
5.671875
 20
0.996920
 11
5.359875
 21
0.996920
  0
SOLID
  8
Layer10$C$L10
 10
5.949877
 20
0.966486
 11
5.949877
 21
1.027354
 12
5.796875
 22
0.996920
 13
5.796875
 23
0.996920
  0
LINE
  8
Layer10$C$L10
 10
5.796875
 20
0.996920
 11
6.215609
 21
0.996920
  0
LINE
  8
Layer10$C$L10
  6
GAP
 10
5.671875
 20
0.469755
 11
5.671875
 21
1.146920
  0
LINE
  8
Layer10$C$L10
  6
GAP
 10
5.796875
 20
0.469755
 11
5.796875
 21
1.146920
  0
TEXT
  8
Layer10$C$L10
 10
6.275609
 20
0.936920
 40
0.120000
  1
.13
 72
     5
 11
6.603521
 21
0.936920
  0
TEXT
  8
Layer10$C$L10
 10
6.275609
 20
0.756920
 40
0.120000
  1
(3.2mm)
 72
     5
 11
7.083521
 21
0.756920
  0
ENDBLK
  8
Layer10$C$L10
  0
BLOCK
  8
Layer10$C$L10
  2
*D2
 70
     1
 10
0.000000
 20
0.000000
  0
SOLID
  8
Layer10$C$L10
 10
4.441327
 20
-0.220497
 11
4.380458
 21
-0.220497
 12
4.410892
 22
-0.373500
 13
4.410892
 23
-0.373500
  0
SOLID
  8
Layer10$C$L10
 10
4.380458
 20
0.220497
 11
4.441327
 21
0.220497
 12
4.410892
 22
0.373500
 13
4.410892
 23
0.373500
  0
LINE
  8
Layer10$C$L10
 10
4.410892
 20
-0.373500
 11
4.410892
 21
0.373500
  0
LINE
  8
Layer10$C$L10
 10
4.410892
 20
0.373500
 11
4.410892
 21
0.562250
  0
LINE
  8
Layer10$C$L10
  6
GAP
 10
3.725000
 20
-0.373500
 11
4.560893
 21
-0.373500
  0
LINE
  8
Layer10$C$L10
  6
GAP
 10
3.725000
 20
0.373500
 11
4.560893
 21
0.373500
  0
TEXT
  8
Layer10$C$L10
 10
3.946936
 20
0.802250
 40
0.120000
  1
.75
 72
     5
 11
4.274849
 21
0.802250
  0
TEXT
  8
Layer10$C$L10
 10
3.946936
 20
0.622250
 40
0.120000
  1
(19.0mm)
 72
     5
 11
4.874849
 21
0.622250
  0
ENDBLK
  8
Layer10$C$L10
  0
BLOCK
  8
Layer10$C$L10
  2
*D3
 70
     1
 10
0.000000
 20
0.000000
  0
SOLID
  8
Layer10$C$L10
 10
-0.596998
 20
-2.891316
 11
-0.596998
 21
-2.830448
 12
-0.750000
 22
-2.860882
 13
-0.750000
 23
-2.860882
  0
LINE
  8
Layer10$C$L10
 10
-0.750000
 20
-2.860882
 11
1.153544
 21
-2.860882
  0
SOLID
  8
Layer10$C$L10
 10
3.471998
 20
-2.830448
 11
3.471998
 21
-2.891316
 12
3.625000
 22
-2.860882
 13
3.625000
 23
-2.860882
  0
LINE
  8
Layer10$C$L10
 10
3.625000
 20
-2.860882
 11
1.721456
 21
-2.860882
  0
LINE
  8
Layer10$C$L10
  6
GAP
 10
-0.750000
 20
-0.473500
 11
-0.750000
 21
-3.010882
  0
LINE
  8
Layer10$C$L10
  6
GAP
 10
3.625000
 20
-0.473500
 11
3.625000
 21
-3.010882
  0
TEXT
  8
Layer10$C$L10
 10
1.213544
 20
-2.920882
 40
0.120000
  1
4.38
 72
     5
 11
1.661456
 21
-2.920882
  0
TEXT
  8
Layer10$C$L10
 10
1.213544
 20
-3.100882
 40
0.120000
  1
(111.1mm)
 72
     5
 11
2.261456
 21
-3.100882
  0
ENDBLK
  8
Layer10$C$L10
  0
BLOCK
  8
Layer10$C$L10
  2
*D4
 70
     1
 10
0.000000
 20
0.000000
  0
SOLID
  8
Layer10$C$L10
 10
-0.252997
 20
-2.217076
 11
-0.252997
 21
-2.156208
 12
-0.406000
 22
-2.186642
 13
-0.406000
 23
-2.186642
  0
LINE
  8
Layer10$C$L10
 10
-0.406000
 20
-2.186642
 11
1.153544
 21
-2.186642
  0
SOLID
  8
Layer10$C$L10
 10
3.127997
 20
-2.156208
 11
3.127997
 21
-2.217076
 12
3.281000
 22
-2.186642
 13
3.281000
 23
-2.186642
  0
LINE
  8
Layer10$C$L10
 10
3.281000
 20
-2.186642
 11
1.721456
 21
-2.186642
  0
LINE
  8
Layer10$C$L10
  6
GAP
 10
-0.406000
 20
-0.150000
 11
-0.406000
 21
-2.336642
  0
LINE
  8
Layer10$C$L10
  6
GAP
 10
3.281000
 20
-0.150000
 11
3.281000
 21
-2.336642
  0
TEXT
  8
Layer10$C$L10
 10
1.213544
 20
-2.246642
 40
0.120000
  1
3.69
 72
     5
 11
1.661456
 21
-2.246642
  0
TEXT
  8
Layer10$C$L10
 10
1.213544
 20
-2.426642
 40
0.120000
  1
(93.6mm)
 72
     5
 11
2.141456
 21
-2.426642
  0
ENDBLK
  8
Layer10$C$L10
  0
BLOCK
  8
Layer10$C$L10
  2
*D5
 70
     1
 10
0.000000
 20
0.000000
  0
SOLID
  8
Layer10$C$L10
 10
-0.159998
 20
-1.618452
 11
-0.159998
 21
-1.557583
 12
-0.313000
 22
-1.588018
 13
-0.313000
 23
-1.588018
  0
LINE
  8
Layer10$C$L10
 10
-0.313000
 20
-1.588018
 11
1.153544
 21
-1.588018
  0
SOLID
  8
Layer10$C$L10
 10
3.034997
 20
-1.557583
 11
3.034997
 21
-1.618452
 12
3.188000
 22
-1.588018
 13
3.188000
 23
-1.588018
  0
LINE
  8
Layer10$C$L10
 10
3.188000
 20
-1.588018
 11
1.721456
 21
-1.588018
  0
LINE
  8
Layer10$C$L10
  6
GAP
 10
-0.313000
 20
-0.150000
 11
-0.313000
 21
-1.738018
  0
LINE
  8
Layer10$C$L10
  6
GAP
 10
3.188000
 20
-0.150000
 11
3.188000
 21
-1.738018
  0
TEXT
  8
Layer10$C$L10
 10
1.213544
 20
-1.648018
 40
0.120000
  1
3.50
 72
     5
 11
1.661456
 21
-1.648018
  0
TEXT
  8
Layer10$C$L10
 10
1.213544
 20
-1.828018
 40
0.120000
  1
(88.9mm)
 72
     5
 11
2.141456
 21
-1.828018
  0
ENDBLK
  8
Layer10$C$L10
  0
BLOCK
  8
Layer10$C$L10
  2
*D6
 70
     1
 10
0.000000
 20
0.000000
  0
SOLID
  8
Layer10$C$L10
 10
0.153002
 20
-1.037243
 11
0.153002
 21
-0.976375
 12
-2.220446E-16
 22
-1.006809
 13
-2.220446E-16
 23
-1.006809
  0
LINE
  8
Layer10$C$L10
 10
-2.220446E-16
 20
-1.006809
 11
1.153544
 21
-1.006809
  0
SOLID
  8
Layer10$C$L10
 10
2.721998
 20
-0.976375
 11
2.721998
 21
-1.037243
 12
2.875000
 22
-1.006809
 13
2.875000
 23
-1.006809
  0
LINE
  8
Layer10$C$L10
 10
2.875000
 20
-1.006809
 11
1.721456
 21
-1.006809
  0
LINE
  8
Layer10$C$L10
  6
GAP
 10
-1.722649E-16
 20
-0.600000
 11
-2.403995E-16
 21
-1.156809
  0
LINE
  8
Layer10$C$L10
  6
GAP
 10
2.875000
 20
-0.600000
 11
2.875000
 21
-1.156809
  0
TEXT
  8
Layer10$C$L10
 10
1.213544
 20
-1.066809
 40
0.120000
  1
2.88
 72
     5
 11
1.661456
 21
-1.066809
  0
TEXT
  8
Layer10$C$L10
 10
1.213544
 20
-1.246809
 40
0.120000
  1
(73.0mm)
 72
     5
 11
2.141456
 21
-1.246809
  0
ENDBLK
  8
Layer10$C$L10
  0
BLOCK
  8
Layer10$C$L10
  2
*D7
 70
     1
 10
0.000000
 20
0.000000
  0
SOLID
  8
Layer10$C$L10
 10
-0.985171
 20
0.309002
 11
-1.046040
 21
0.309002
 12
-1.015605
 22
0.156000
 13
-1.015605
 23
0.156000
  0
LINE
  8
Layer10$C$L10
 10
-1.015605
 20
0.156000
 11
-1.015605
 21
0.484156
  0
SOLID
  8
Layer10$C$L10
 10
-1.046040
 20
-0.309002
 11
-0.985171
 21
-0.309002
 12
-1.015605
 22
-0.156000
 13
-1.015605
 23
-0.156000
  0
LINE
  8
Layer10$C$L10
 10
-1.015605
 20
-0.156000
 11
-1.015605
 21
-0.468000
  0
LINE
  8
Layer10$C$L10
  6
GAP
 10
-0.554933
 20
0.156000
 11
-1.165605
 21
0.156000
  0
LINE
  8
Layer10$C$L10
  6
GAP
 10
-0.559637
 20
-0.156000
 11
-1.165605
 21
-0.156000
  0
TEXT
  8
Layer10$C$L10
 10
-1.419562
 20
0.724156
 40
0.120000
  1
.31
 72
     5
 11
-1.091649
 21
0.724156
  0
TEXT
  8
Layer10$C$L10
 10
-1.419562
 20
0.544156
 40
0.120000
  1
(7.9mm)
 72
     5
 11
-0.611649
 21
0.544156
  0
ENDBLK
  8
Layer10$C$L10
  0
BLOCK
  8
Layer0$C$L0
  2
*X0
 70
     1
 10
0.000000
 20
0.000000
  0
LINE
  8
Layer0$C$L0
 10
-1.270976
 20
-4.318127
 11
-1.158477
 21
-4.318127
  0
LINE
  8
Layer0$C$L0
 10
-1.158477
 20
-4.305626
 11
-1.259518
 21
-4.305626
  0
LINE
  8
Layer0$C$L0
 10
-1.248059
 20
-4.293127
 11
-1.158477
 21
-4.293127
  0
LINE
  8
Layer0$C$L0
 10
-1.158477
 20
-4.280627
 11
-1.236601
 21
-4.280627
  0
LINE
  8
Layer0$C$L0
 10
-1.225143
 20
-4.268126
 11
-1.158477
 21
-4.268126
  0
LINE
  8
Layer0$C$L0
 10
-1.158477
 20
-4.255627
 11
-1.213685
 21
-4.255627
  0
LINE
  8
Layer0$C$L0
 10
-1.202227
 20
-4.243126
 11
-1.158477
 21
-4.243126
  0
LINE
  8
Layer0$C$L0
 10
-1.158477
 20
-4.230627
 11
-1.190768
 21
-4.230627
  0
LINE
  8
Layer0$C$L0
 10
-1.208476
 20
-4.218127
 11
-1.370976
 21
-4.218127
  0
LINE
  8
Layer0$C$L0
 10
-1.058476
 20
-4.218127
 11
-1.179310
 21
-4.218127
  0
LINE
  8
Layer0$C$L0
 10
-1.208476
 20
-4.205627
 11
-1.370976
 21
-4.205627
  0
LINE
  8
Layer0$C$L0
 10
-1.058476
 20
-4.205627
 11
-1.167851
 21
-4.205626
  0
LINE
  8
Layer0$C$L0
 10
-1.208476
 20
-4.193127
 11
-1.370976
 21
-4.193127
  0
LINE
  8
Layer0$C$L0
 10
-1.058476
 20
-4.193127
 11
-1.156393
 21
-4.193127
  0
LINE
  8
Layer0$C$L0
 10
-1.208476
 20
-4.180627
 11
-1.370976
 21
-4.180627
  0
LINE
  8
Layer0$C$L0
 10
-1.058476
 20
-4.180627
 11
-1.144935
 21
-4.180626
  0
LINE
  8
Layer0$C$L0
 10
-1.208476
 20
-4.168127
 11
-1.370976
 21
-4.168127
  0
LINE
  8
Layer0$C$L0
 10
-1.058476
 20
-4.168127
 11
-1.133477
 21
-4.168127
  0
LINE
  8
Layer0$C$L0
 10
-1.208476
 20
-4.155627
 11
-1.370976
 21
-4.155627
  0
LINE
  8
Layer0$C$L0
 10
-1.058476
 20
-4.155627
 11
-1.144936
 21
-4.155627
  0
LINE
  8
Layer0$C$L0
 10
-1.208476
 20
-4.143127
 11
-1.370976
 21
-4.143127
  0
LINE
  8
Layer0$C$L0
 10
-1.058476
 20
-4.143127
 11
-1.156394
 21
-4.143127
  0
LINE
  8
Layer0$C$L0
 10
-1.208476
 20
-4.130627
 11
-1.370976
 21
-4.130627
  0
LINE
  8
Layer0$C$L0
 10
-1.058476
 20
-4.130627
 11
-1.167852
 21
-4.130627
  0
LINE
  8
Layer0$C$L0
 10
-1.158477
 20
-4.118127
 11
-1.179310
 21
-4.118127
  0
LINE
  8
Layer0$C$L0
 10
-1.158477
 20
-4.105627
 11
-1.190768
 21
-4.105627
  0
LINE
  8
Layer0$C$L0
 10
-1.158477
 20
-4.093127
 11
-1.202227
 21
-4.093127
  0
LINE
  8
Layer0$C$L0
 10
-1.158477
 20
-4.080626
 11
-1.213685
 21
-4.080627
  0
LINE
  8
Layer0$C$L0
 10
-1.158477
 20
-4.068127
 11
-1.225143
 21
-4.068127
  0
LINE
  8
Layer0$C$L0
 10
-1.158477
 20
-4.055627
 11
-1.236602
 21
-4.055627
  0
LINE
  8
Layer0$C$L0
 10
-1.158477
 20
-4.043127
 11
-1.248060
 21
-4.043127
  0
LINE
  8
Layer0$C$L0
 10
-1.158477
 20
-4.030627
 11
-1.259519
 21
-4.030627
  0
ENDBLK
  8
Layer0$C$L0
  0
BLOCK
  8
Layer0$C$L0
  2
*X1
 70
     1
 10
0.000000
 20
0.000000
  0
LINE
  8
Layer0$C$L0
 10
-0.760976
 20
-4.318127
 11
-0.682977
 21
-4.318127
  0
LINE
  8
Layer0$C$L0
 10
-0.752458
 20
-4.305843
 11
-0.793965
 21
-4.305626
  0
LINE
  8
Layer0$C$L0
 10
-0.649987
 20
-4.305626
 11
-0.691495
 21
-4.305843
  0
LINE
  8
Layer0$C$L0
 10
-0.766921
 20
-4.293127
 11
-0.804215
 21
-4.293127
  0
LINE
  8
Layer0$C$L0
 10
-0.639737
 20
-4.293127
 11
-0.677032
 21
-4.293127
  0
LINE
  8
Layer0$C$L0
 10
-0.770833
 20
-4.281067
 11
-0.809327
 21
-4.280627
  0
LINE
  8
Layer0$C$L0
 10
-0.634625
 20
-4.280627
 11
-0.673120
 21
-4.281067
  0
LINE
  8
Layer0$C$L0
 10
-0.770976
 20
-4.268126
 11
-0.810977
 21
-4.268127
  0
LINE
  8
Layer0$C$L0
 10
-0.632976
 20
-4.268127
 11
-0.672976
 21
-4.268126
  0
LINE
  8
Layer0$C$L0
 10
-0.770976
 20
-4.255627
 11
-0.810977
 21
-4.255627
  0
LINE
  8
Layer0$C$L0
 10
-0.632976
 20
-4.255627
 11
-0.672976
 21
-4.255627
  0
LINE
  8
Layer0$C$L0
 10
-0.770976
 20
-4.243126
 11
-0.810977
 21
-4.243127
  0
LINE
  8
Layer0$C$L0
 10
-0.632976
 20
-4.243127
 11
-0.674500
 21
-4.243474
  0
LINE
  8
Layer0$C$L0
 10
-0.770976
 20
-4.230627
 11
-0.810977
 21
-4.230628
  0
LINE
  8
Layer0$C$L0
 10
-0.632976
 20
-4.230628
 11
-0.717977
 21
-4.230627
  0
LINE
  8
Layer0$C$L0
 10
-0.770976
 20
-4.218127
 11
-0.810977
 21
-4.218127
  0
LINE
  8
Layer0$C$L0
 10
-0.770976
 20
-4.205626
 11
-0.810977
 21
-4.205627
  0
LINE
  8
Layer0$C$L0
 10
-0.770976
 20
-4.193127
 11
-0.810977
 21
-4.193127
  0
LINE
  8
Layer0$C$L0
 10
-0.632976
 20
-4.193127
 11
-0.672976
 21
-4.193127
  0
LINE
  8
Layer0$C$L0
 10
-0.770976
 20
-4.180626
 11
-0.810977
 21
-4.180627
  0
LINE
  8
Layer0$C$L0
 10
-0.632976
 20
-4.180626
 11
-0.672976
 21
-4.180626
  0
LINE
  8
Layer0$C$L0
 10
-0.770976
 20
-4.168127
 11
-0.810976
 21
-4.168127
  0
LINE
  8
Layer0$C$L0
 10
-0.632977
 20
-4.168127
 11
-0.672976
 21
-4.168127
  0
LINE
  8
Layer0$C$L0
 10
-0.770854
 20
-4.155627
 11
-0.809327
 21
-4.155627
  0
LINE
  8
Layer0$C$L0
 10
-0.634625
 20
-4.155627
 11
-0.673099
 21
-4.155627
  0
LINE
  8
Layer0$C$L0
 10
-0.766921
 20
-4.143126
 11
-0.804214
 21
-4.143126
  0
LINE
  8
Layer0$C$L0
 10
-0.639738
 20
-4.143126
 11
-0.677032
 21
-4.143126
  0
LINE
  8
Layer0$C$L0
 10
-0.752915
 20
-4.130627
 11
-0.793964
 21
-4.130627
  0
LINE
  8
Layer0$C$L0
 10
-0.649988
 20
-4.130627
 11
-0.691037
 21
-4.130627
  0
ENDBLK
  8
Layer0$C$L0
  0
BLOCK
  8
Layer0$C$L0
  2
*X2
 70
     1
 10
0.000000
 20
0.000000
  0
LINE
  8
Layer0$C$L0
 10
-0.542974
 20
-4.318127
 11
-0.464975
 21
-4.318127
  0
LINE
  8
Layer0$C$L0
 10
-0.534456
 20
-4.305843
 11
-0.575965
 21
-4.305626
  0
LINE
  8
Layer0$C$L0
 10
-0.431986
 20
-4.305626
 11
-0.473494
 21
-4.305843
  0
LINE
  8
Layer0$C$L0
 10
-0.548920
 20
-4.293127
 11
-0.586215
 21
-4.293127
  0
LINE
  8
Layer0$C$L0
 10
-0.421736
 20
-4.293127
 11
-0.459030
 21
-4.293127
  0
LINE
  8
Layer0$C$L0
 10
-0.552832
 20
-4.281067
 11
-0.591327
 21
-4.280627
  0
LINE
  8
Layer0$C$L0
 10
-0.416624
 20
-4.280627
 11
-0.455118
 21
-4.281067
  0
LINE
  8
Layer0$C$L0
 10
-0.552975
 20
-4.268126
 11
-0.592977
 21
-4.268127
  0
LINE
  8
Layer0$C$L0
 10
-0.414974
 20
-4.268127
 11
-0.454975
 21
-4.268126
  0
LINE
  8
Layer0$C$L0
 10
-0.552975
 20
-4.255627
 11
-0.592977
 21
-4.255627
  0
LINE
  8
Layer0$C$L0
 10
-0.414974
 20
-4.255627
 11
-0.454975
 21
-4.255627
  0
LINE
  8
Layer0$C$L0
 10
-0.552975
 20
-4.243126
 11
-0.592977
 21
-4.243127
  0
LINE
  8
Layer0$C$L0
 10
-0.414974
 20
-4.243127
 11
-0.454975
 21
-4.243126
  0
LINE
  8
Layer0$C$L0
 10
-0.552975
 20
-4.230627
 11
-0.592977
 21
-4.230628
  0
LINE
  8
Layer0$C$L0
 10
-0.414974
 20
-4.230628
 11
-0.454975
 21
-4.230627
  0
LINE
  8
Layer0$C$L0
 10
-0.552975
 20
-4.218127
 11
-0.592977
 21
-4.218127
  0
LINE
  8
Layer0$C$L0
 10
-0.414974
 20
-4.218127
 11
-0.454975
 21
-4.218127
  0
LINE
  8
Layer0$C$L0
 10
-0.552975
 20
-4.205626
 11
-0.592977
 21
-4.205627
  0
LINE
  8
Layer0$C$L0
 10
-0.414974
 20
-4.205627
 11
-0.454975
 21
-4.205626
  0
LINE
  8
Layer0$C$L0
 10
-0.552975
 20
-4.193127
 11
-0.592977
 21
-4.193127
  0
LINE
  8
Layer0$C$L0
 10
-0.414974
 20
-4.193127
 11
-0.454975
 21
-4.193127
  0
LINE
  8
Layer0$C$L0
 10
-0.552975
 20
-4.180626
 11
-0.592977
 21
-4.180627
  0
LINE
  8
Layer0$C$L0
 10
-0.414974
 20
-4.180627
 11
-0.454975
 21
-4.180626
  0
LINE
  8
Layer0$C$L0
 10
-0.552975
 20
-4.168127
 11
-0.592976
 21
-4.168127
  0
LINE
  8
Layer0$C$L0
 10
-0.414975
 20
-4.168127
 11
-0.454975
 21
-4.168127
  0
LINE
  8
Layer0$C$L0
 10
-0.552853
 20
-4.155627
 11
-0.591327
 21
-4.155627
  0
LINE
  8
Layer0$C$L0
 10
-0.416624
 20
-4.155627
 11
-0.455097
 21
-4.155627
  0
LINE
  8
Layer0$C$L0
 10
-0.548920
 20
-4.143126
 11
-0.586214
 21
-4.143126
  0
LINE
  8
Layer0$C$L0
 10
-0.421737
 20
-4.143126
 11
-0.459030
 21
-4.143126
  0
LINE
  8
Layer0$C$L0
 10
-0.534914
 20
-4.130627
 11
-0.575964
 21
-4.130627
  0
LINE
  8
Layer0$C$L0
 10
-0.431987
 20
-4.130627
 11
-0.473036
 21
-4.130627
  0
ENDBLK
  8
Layer0$C$L0
  0
BLOCK
  8
Layer0$C$L0
  2
*X3
 70
     1
 10
0.000000
 20
0.000000
  0
LINE
  8
Layer0$C$L0
 10
-0.324974
 20
-4.318127
 11
-0.246975
 21
-4.318127
  0
LINE
  8
Layer0$C$L0
 10
-0.316456
 20
-4.305843
 11
-0.357964
 21
-4.305626
  0
LINE
  8
Layer0$C$L0
 10
-0.213984
 20
-4.305626
 11
-0.255493
 21
-4.305843
  0
LINE
  8
Layer0$C$L0
 10
-0.330919
 20
-4.293127
 11
-0.368214
 21
-4.293127
  0
LINE
  8
Layer0$C$L0
 10
-0.203735
 20
-4.293127
 11
-0.241030
 21
-4.293127
  0
LINE
  8
Layer0$C$L0
 10
-0.334831
 20
-4.281067
 11
-0.373325
 21
-4.280627
  0
LINE
  8
Layer0$C$L0
 10
-0.198623
 20
-4.280627
 11
-0.237118
 21
-4.281067
  0
LINE
  8
Layer0$C$L0
 10
-0.334974
 20
-4.268126
 11
-0.374975
 21
-4.268127
  0
LINE
  8
Layer0$C$L0
 10
-0.196974
 20
-4.268127
 11
-0.236975
 21
-4.268126
  0
LINE
  8
Layer0$C$L0
 10
-0.334974
 20
-4.255627
 11
-0.374975
 21
-4.255627
  0
LINE
  8
Layer0$C$L0
 10
-0.196974
 20
-4.255627
 11
-0.236975
 21
-4.255627
  0
LINE
  8
Layer0$C$L0
 10
-0.334974
 20
-4.243126
 11
-0.374975
 21
-4.243127
  0
LINE
  8
Layer0$C$L0
 10
-0.196974
 20
-4.243127
 11
-0.236975
 21
-4.243126
  0
LINE
  8
Layer0$C$L0
 10
-0.334974
 20
-4.230627
 11
-0.374975
 21
-4.230628
  0
LINE
  8
Layer0$C$L0
 10
-0.196974
 20
-4.230628
 11
-0.236975
 21
-4.230627
  0
LINE
  8
Layer0$C$L0
 10
-0.334974
 20
-4.218127
 11
-0.374975
 21
-4.218127
  0
LINE
  8
Layer0$C$L0
 10
-0.196974
 20
-4.218127
 11
-0.236975
 21
-4.218127
  0
LINE
  8
Layer0$C$L0
 10
-0.334974
 20
-4.205626
 11
-0.374975
 21
-4.205627
  0
LINE
  8
Layer0$C$L0
 10
-0.196974
 20
-4.205627
 11
-0.236975
 21
-4.205626
  0
LINE
  8
Layer0$C$L0
 10
-0.334974
 20
-4.193127
 11
-0.374975
 21
-4.193127
  0
LINE
  8
Layer0$C$L0
 10
-0.196974
 20
-4.193127
 11
-0.236975
 21
-4.193127
  0
LINE
  8
Layer0$C$L0
 10
-0.334974
 20
-4.180626
 11
-0.374975
 21
-4.180627
  0
LINE
  8
Layer0$C$L0
 10
-0.196974
 20
-4.180627
 11
-0.236975
 21
-4.180626
  0
LINE
  8
Layer0$C$L0
 10
-0.334974
 20
-4.168127
 11
-0.374975
 21
-4.168128
  0
LINE
  8
Layer0$C$L0
 10
-0.196974
 20
-4.168128
 11
-0.236975
 21
-4.168127
  0
LINE
  8
Layer0$C$L0
 10
-0.334974
 20
-4.155627
 11
-0.374975
 21
-4.155627
  0
LINE
  8
Layer0$C$L0
 10
-0.196974
 20
-4.155627
 11
-0.236975
 21
-4.155627
  0
LINE
  8
Layer0$C$L0
 10
-0.334974
 20
-4.143126
 11
-0.374975
 21
-4.143127
  0
LINE
  8
Layer0$C$L0
 10
-0.196974
 20
-4.143127
 11
-0.236975
 21
-4.143126
  0
LINE
  8
Layer0$C$L0
 10
-0.334974
 20
-4.130627
 11
-0.374975
 21
-4.130627
  0
LINE
  8
Layer0$C$L0
 10
-0.196974
 20
-4.130627
 11
-0.236975
 21
-4.130627
  0
ENDBLK
  8
Layer0$C$L0
  0
BLOCK
  8
Layer0$C$L0
  2
*X4
 70
     1
 10
0.000000
 20
0.000000
  0
LINE
  8
Layer0$C$L0
 10
-0.156975
 20
-4.318127
 11
2.102661E-02
 21
-4.318127
  0
LINE
  8
Layer0$C$L0
 10
-0.116974
 20
-4.305626
 11
-0.156975
 21
-4.305626
  0
LINE
  8
Layer0$C$L0
 10
-0.156975
 20
-4.293127
 11
-0.116974
 21
-4.293127
  0
LINE
  8
Layer0$C$L0
 10
-0.116974
 20
-4.280627
 11
-0.156975
 21
-4.280627
  0
LINE
  8
Layer0$C$L0
 10
-0.156975
 20
-4.268126
 11
-0.116974
 21
-4.268126
  0
LINE
  8
Layer0$C$L0
 10
-0.116974
 20
-4.255627
 11
-0.156975
 21
-4.255627
  0
LINE
  8
Layer0$C$L0
 10
-0.156975
 20
-4.243126
 11
-0.116974
 21
-4.243126
  0
LINE
  8
Layer0$C$L0
 10
-0.116974
 20
-4.230627
 11
-0.156975
 21
-4.230627
  0
LINE
  8
Layer0$C$L0
 10
-0.156975
 20
-4.218127
 11
-0.116974
 21
-4.218127
  0
LINE
  8
Layer0$C$L0
 10
-0.116974
 20
-4.205626
 11
-0.156975
 21
-4.205626
  0
LINE
  8
Layer0$C$L0
 10
-0.156975
 20
-4.193127
 11
-0.116974
 21
-4.193127
  0
LINE
  8
Layer0$C$L0
 10
-0.116974
 20
-4.180626
 11
-0.156975
 21
-4.180626
  0
LINE
  8
Layer0$C$L0
 10
-0.156975
 20
-4.168127
 11
-0.116974
 21
-4.168127
  0
LINE
  8
Layer0$C$L0
 10
-0.116974
 20
-4.155627
 11
-0.156975
 21
-4.155627
  0
LINE
  8
Layer0$C$L0
 10
-0.156975
 20
-4.143126
 11
-0.116974
 21
-4.143126
  0
LINE
  8
Layer0$C$L0
 10
-0.116974
 20
-4.130627
 11
-0.156975
 21
-4.130627
  0
ENDBLK
  8
Layer0$C$L0
  0
BLOCK
  8
Layer0$C$L0
  2
*X5
 70
     1
 10
0.000000
 20
0.000000
  0
LINE
  8
Layer0$C$L0
 10
6.102562E-02
 20
-4.318127
 11
0.189026
 21
-4.318127
  0
LINE
  8
Layer0$C$L0
 10
0.101025
 20
-4.305626
 11
6.102562E-02
 21
-4.305626
  0
LINE
  8
Layer0$C$L0
 10
0.222015
 20
-4.305626
 11
0.180506
 21
-4.305843
  0
LINE
  8
Layer0$C$L0
 10
0.101025
 20
-4.293127
 11
6.102562E-02
 21
-4.293127
  0
LINE
  8
Layer0$C$L0
 10
0.232265
 20
-4.293127
 11
0.194968
 21
-4.293127
  0
LINE
  8
Layer0$C$L0
 10
0.101025
 20
-4.280627
 11
6.102562E-02
 21
-4.280627
  0
LINE
  8
Layer0$C$L0
 10
0.237377
 20
-4.280627
 11
0.198881
 21
-4.281067
  0
LINE
  8
Layer0$C$L0
 10
0.101025
 20
-4.268126
 11
6.102562E-02
 21
-4.268126
  0
LINE
  8
Layer0$C$L0
 10
0.239025
 20
-4.268127
 11
0.199026
 21
-4.268126
  0
LINE
  8
Layer0$C$L0
 10
0.101025
 20
-4.255627
 11
6.102562E-02
 21
-4.255627
  0
LINE
  8
Layer0$C$L0
 10
0.239025
 20
-4.255627
 11
0.199026
 21
-4.255627
  0
LINE
  8
Layer0$C$L0
 10
0.101025
 20
-4.243126
 11
6.102562E-02
 21
-4.243126
  0
LINE
  8
Layer0$C$L0
 10
0.239025
 20
-4.243127
 11
0.199026
 21
-4.243126
  0
LINE
  8
Layer0$C$L0
 10
0.101025
 20
-4.230627
 11
6.102562E-02
 21
-4.230627
  0
LINE
  8
Layer0$C$L0
 10
0.239025
 20
-4.230628
 11
0.199026
 21
-4.230627
  0
LINE
  8
Layer0$C$L0
 10
0.101025
 20
-4.218127
 11
6.102562E-02
 21
-4.218127
  0
LINE
  8
Layer0$C$L0
 10
0.239025
 20
-4.218127
 11
0.199026
 21
-4.218127
  0
LINE
  8
Layer0$C$L0
 10
0.101025
 20
-4.205626
 11
6.102562E-02
 21
-4.205626
  0
LINE
  8
Layer0$C$L0
 10
0.239025
 20
-4.205627
 11
0.199026
 21
-4.205626
  0
LINE
  8
Layer0$C$L0
 10
0.101025
 20
-4.193127
 11
6.102562E-02
 21
-4.193127
  0
LINE
  8
Layer0$C$L0
 10
0.239025
 20
-4.193127
 11
0.199026
 21
-4.193127
  0
LINE
  8
Layer0$C$L0
 10
0.101025
 20
-4.180626
 11
6.102562E-02
 21
-4.180626
  0
LINE
  8
Layer0$C$L0
 10
0.239025
 20
-4.180627
 11
0.199026
 21
-4.180626
  0
LINE
  8
Layer0$C$L0
 10
0.101025
 20
-4.168127
 11
6.102562E-02
 21
-4.168127
  0
LINE
  8
Layer0$C$L0
 10
0.239026
 20
-4.168127
 11
0.199026
 21
-4.168127
  0
LINE
  8
Layer0$C$L0
 10
0.101025
 20
-4.155627
 11
6.102562E-02
 21
-4.155627
  0
LINE
  8
Layer0$C$L0
 10
0.237377
 20
-4.155627
 11
0.198902
 21
-4.155627
  0
LINE
  8
Layer0$C$L0
 10
0.101025
 20
-4.143126
 11
6.102562E-02
 21
-4.143126
  0
LINE
  8
Layer0$C$L0
 10
0.232265
 20
-4.143126
 11
0.194968
 21
-4.143126
  0
LINE
  8
Layer0$C$L0
 10
0.101025
 20
-4.130627
 11
6.102562E-02
 21
-4.130627
  0
LINE
  8
Layer0$C$L0
 10
0.222014
 20
-4.130627
 11
0.180964
 21
-4.130627
  0
ENDBLK
  8
Layer0$C$L0
  0
ENDSEC
  0
SECTION
  2
ENTITIES
  0
POINT
  8
Layer0$C$L0
 10
8.529023
 20
-5.723126
  0
TEXT
  8
Layer10$C$L10
 10
5.768213
 20
-4.851390
 40
0.250000
  1
106082
 72
     5
 11
7.201364
 21
-4.851390
  0
TEXT
  8
Layer10$C$L10
 10
6.5924887353
 20
1.8035505489
 40
0.1560000032
  1
106082
 72
     5
 11
7.4867747495
 21
1.8035505489
  0
TEXT
  8
Layer10$C$L10
 10
2.875024
 20
-4.699792
 40
0.120000
  1
35-100A   700V
 72
     5
 11
4.523024
 21
-4.699792
  0
TEXT
  8
Layer10$C$L10
 10
2.815024
 20
-4.366459
 40
0.120000
  1
FORM 101 TYPE 4
 72
     5
 11
4.583024
 21
-4.366459
  0
TEXT
  8
Layer10$C$L10
 10
6.186918
 20
-3.889653
 40
0.120000
  1
A70QS100-4
 72
     5
 11
7.354831
 21
-3.889653
  0
TEXT
  8
Layer10$C$L10
 10
6.186918
 20
-3.639653
 40
0.120000
  1
A70QS90-4
 72
     5
 11
7.234831
 21
-3.639653
  0
TEXT
  8
Layer10$C$L10
 10
6.186918
 20
-3.389653
 40
0.120000
  1
A70QS80-4
 72
     5
 11
7.234831
 21
-3.389653
  0
TEXT
  8
Layer10$C$L10
 10
6.186918
 20
-3.139653
 40
0.120000
  1
A70QS70-4
 72
     5
 11
7.234831
 21
-3.139653
  0
TEXT
  8
Layer10$C$L10
 10
6.186918
 20
-2.889653
 40
0.120000
  1
A70QS60-4
 72
     5
 11
7.234831
 21
-2.889653
  0
TEXT
  8
Layer10$C$L10
 10
6.186918
 20
-2.639653
 40
0.120000
  1
A70QS50-4
 72
     5
 11
7.234831
 21
-2.639653
  0
TEXT
  8
Layer10$C$L10
 10
6.186918
 20
-2.389653
 40
0.120000
  1
A70QS40-4
 72
     5
 11
7.234831
 21
-2.389653
  0
TEXT
  8
Layer10$C$L10
 10
4.926919
 20
-3.889652
 40
0.120000
  1
100A
 72
     5
 11
5.374831
 21
-3.889652
  0
TEXT
  8
Layer10$C$L10
 10
5.046919
 20
-3.639652
 40
0.120000
  1
90A
 72
     5
 11
5.374831
 21
-3.639652
  0
TEXT
  8
Layer10$C$L10
 10
5.046919
 20
-3.389652
 40
0.120000
  1
80A
 72
     5
 11
5.374831
 21
-3.389652
  0
TEXT
  8
Layer10$C$L10
 10
5.046919
 20
-3.139652
 40
0.120000
  1
70A
 72
     5
 11
5.374831
 21
-3.139652
  0
TEXT
  8
Layer10$C$L10
 10
5.046919
 20
-2.889652
 40
0.120000
  1
60A
 72
     5
 11
5.374831
 21
-2.889652
  0
TEXT
  8
Layer10$C$L10
 10
5.046919
 20
-2.639652
 40
0.120000
  1
50A
 72
     5
 11
5.374831
 21
-2.639652
  0
TEXT
  8
Layer10$C$L10
 10
5.046919
 20
-2.389652
 40
0.120000
  1
40A
 72
     5
 11
5.374831
 21
-2.389652
  0
LINE
  8
Layer0$C$L0
 10
4.806919
 20
-1.954650
 11
7.749023
 21
-1.954650
  0
LINE
  8
Layer0$C$L0
 10
4.806919
 20
-2.204650
 11
7.749023
 21
-2.204650
  0
LINE
  8
Layer0$C$L0
 10
4.806919
 20
-2.454650
 11
7.749023
 21
-2.454650
  0
LINE
  8
Layer0$C$L0
 10
4.806919
 20
-2.704650
 11
7.749023
 21
-2.704650
  0
LINE
  8
Layer0$C$L0
 10
4.806919
 20
-2.954650
 11
7.749023
 21
-2.954650
  0
LINE
  8
Layer0$C$L0
 10
4.806919
 20
-3.204650
 11
7.749023
 21
-3.204650
  0
TEXT
  8
Layer10$C$L10
 10
6.246918
 20
-1.889650
 40
0.120000
  1
CATALOG NO.
 72
     5
 11
7.534830
 21
-1.889650
  0
TEXT
  8
Layer10$C$L10
 10
4.926919
 20
-1.889651
 40
0.120000
  1
RATING
 72
     5
 11
5.614831
 21
-1.889651
  0
LINE
  8
Layer0$C$L0
 10
4.806919
 20
-3.704650
 11
7.749023
 21
-3.704650
  0
LINE
  8
Layer0$C$L0
 10
4.806919
 20
-3.454650
 11
7.749023
 21
-3.454650
  0
LINE
  8
Layer0$C$L0
 10
4.806919
 20
-1.704651
 11
7.749023
 21
-1.704651
  0
LINE
  8
Layer0$C$L0
 10
4.806919
 20
-1.704651
 11
4.806919
 21
-3.953125
  0
LINE
  8
Layer0$C$L0
 10
5.766918
 20
-1.704651
 11
5.766918
 21
-3.953125
  0
TEXT
  8
Layer10$C$L10
 10
5.046919
 20
-2.139652
 40
0.120000
  1
35A
 72
     5
 11
5.374831
 21
-2.139652
  0
TEXT
  8
Layer10$C$L10
 10
6.186918
 20
-2.139653
 40
0.120000
  1
A70QS35-4
 72
     5
 11
7.234831
 21
-2.139653
  0
INSERT
  8
Layer0$C$L0
  2
*X0
 10
0.000000
 20
0.000000
  0
INSERT
  8
Layer0$C$L0
  2
*X1
 10
0.000000
 20
0.000000
  0
INSERT
  8
Layer0$C$L0
  2
*X2
 10
0.000000
 20
0.000000
  0
INSERT
  8
Layer0$C$L0
  2
*X3
 10
0.000000
 20
0.000000
  0
INSERT
  8
Layer0$C$L0
  2
*X4
 10
0.000000
 20
0.000000
  0
INSERT
  8
Layer0$C$L0
  2
*X5
 10
0.000000
 20
0.000000
  0
TEXT
  8
Layer10$C$L10
 10
0.309025
 20
-4.318127
 40
8.000000E-02
  1
NEWBURYPORT,MA 01950
 41
1.011842
 72
     5
 11
1.847025
 21
-4.318127
  0
TEXT
  8
Layer10$C$L10
 10
0.309025
 20
-4.198127
 40
8.000000E-02
  1
374 MERRIMAC STREET
 41
1.013889
 72
     5
 11
1.769025
 21
-4.198127
  0
LINE
  8
Layer0$C$L0
 10
6.313024
 20
1.706874
 11
6.313024
 21
2.026875
  0
TEXT
  8
Layer10$C$L10
 10
5.636025
 20
-4.292759
 40
8.000001E-02
  1
NOT TO BE USED FOR PRODUCTION
 41
0.834821
 72
     5
 11
7.506024
 21
-4.292759
  0
TEXT
  8
Layer10$C$L10
 10
5.993524
 20
-4.172759
 40
8.000001E-02
  1
OUTLINE DIMENSIONS
 41
0.849265
 72
     5
 11
7.148524
 21
-4.172759
  0
LINE
  8
Layer0$C$L0
 10
7.749023
 20
-4.973126
 11
7.749023
 21
2.026875
  0
LINE
  8
Layer0$C$L0
 10
-1.500976
 20
-4.973126
 11
7.749023
 21
-4.973126
  0
LINE
  8
Layer0$C$L0
 10
7.799024
 20
-5.023126
 11
7.799024
 21
2.076875
  0
LINE
  8
Layer0$C$L0
 10
-1.550976
 20
-5.023126
 11
7.799024
 21
-5.023126
  0
LINE
  8
Layer0$C$L0
 10
-1.550976
 20
-5.023126
 11
-1.550976
 21
2.076875
  0
LINE
  8
Layer0$C$L0
 10
-1.500976
 20
-4.973126
 11
-1.500976
 21
2.026875
  0
LINE
  8
Layer0$C$L0
 10
1.999023
 20
-4.973126
 11
1.999023
 21
-3.973125
  0
LINE
  8
Layer0$C$L0
 10
7.749023
 20
-3.973125
 11
-1.500976
 21
-3.973125
  0
LINE
  8
Layer0$C$L0
 10
7.749023
 20
-3.953125
 11
-1.500976
 21
-3.953125
  0
TEXT
  8
Layer10$C$L10
 10
-1.471101
 20
-4.933126
 40
8.000001E-02
  1
DATE:
 41
0.968750
 72
     5
 11
-1.161101
 21
-4.933126
  0
TEXT
  8
Layer10$C$L10
 10
0.333220
 20
-4.933126
 40
8.000001E-02
  1
DATE:
 41
0.968750
 72
     5
 11
0.643220
 21
-4.933126
  0
LINE
  8
Layer0$C$L0
 10
5.399025
 20
-4.452026
 11
7.749023
 21
-4.452026
  0
LINE
  8
Layer0$C$L0
 10
5.399025
 20
-4.973126
 11
5.399025
 21
-3.973125
  0
LINE
  8
Layer0$C$L0
 10
-0.717977
 20
-4.218127
 11
-0.632976
 21
-4.218127
  0
LINE
  8
Layer0$C$L0
 10
-0.717977
 20
-4.231127
 11
-0.692977
 21
-4.231127
  0
LINE
  8
Layer0$C$L0
 10
-0.717977
 20
-4.231127
 11
-0.717977
 21
-4.218127
  0
LINE
  8
Layer0$C$L0
 10
-0.196974
 20
-4.268127
 11
-0.196974
 21
-4.118127
  0
LINE
  8
Layer0$C$L0
 10
-0.374975
 20
-4.268127
 11
-0.374975
 21
-4.118127
  0
LINE
  8
Layer0$C$L0
 10
-0.236975
 20
-4.278127
 11
-0.236975
 21
-4.118127
  0
LINE
  8
Layer0$C$L0
 10
-0.334974
 20
-4.278127
 11
-0.334974
 21
-4.118127
  0
LINE
  8
Layer0$C$L0
 10
-0.324974
 20
-4.318127
 11
-0.246975
 21
-4.318127
  0
LINE
  8
Layer0$C$L0
 10
-0.304976
 20
-4.308127
 11
-0.266973
 21
-4.308127
  0
ARC
  8
Layer0$C$L0
 10
-0.324974
 20
-4.268127
 40
5.000000E-02
100
AcDbArc
 50
180.000005
 51
270.000001
  0
ARC
  8
Layer0$C$L0
 10
-0.246975
 20
-4.268127
 40
5.000000E-02
100
AcDbArc
 50
270.000001
 51
360.000010
  0
ARC
  8
Layer0$C$L0
 10
-0.304976
 20
-4.278127
 40
3.000000E-02
100
AcDbArc
 50
180.000005
 51
270.000001
  0
ARC
  8
Layer0$C$L0
 10
-0.266973
 20
-4.278127
 40
3.000000E-02
100
AcDbArc
 50
270.000001
 51
360.000010
  0
ARC
  8
Layer0$C$L0
 10
-0.740977
 20
-4.158127
 40
3.000000E-02
100
AcDbArc
 50
90.000003
 51
180.000005
  0
ARC
  8
Layer0$C$L0
 10
-0.702975
 20
-4.158127
 40
3.000000E-02
100
AcDbArc
 50
1.001791E-05
 51
89.999989
  0
ARC
  8
Layer0$C$L0
 10
-0.702975
 20
-4.278127
 40
3.000000E-02
100
AcDbArc
 50
270.000001
 51
360.000010
  0
ARC
  8
Layer0$C$L0
 10
-0.740977
 20
-4.278127
 40
3.000000E-02
100
AcDbArc
 50
180.000005
 51
270.000001
  0
ARC
  8
Layer0$C$L0
 10
-0.760976
 20
-4.168127
 40
5.000000E-02
100
AcDbArc
 50
90.000003
 51
180.000005
  0
ARC
  8
Layer0$C$L0
 10
-0.682977
 20
-4.168127
 40
5.000000E-02
100
AcDbArc
 50
0.000000
 51
90.000003
  0
ARC
  8
Layer0$C$L0
 10
-0.682977
 20
-4.268127
 40
5.000000E-02
100
AcDbArc
 50
270.000001
 51
360.000010
  0
ARC
  8
Layer0$C$L0
 10
-0.760976
 20
-4.268127
 40
5.000000E-02
100
AcDbArc
 50
180.000005
 51
270.000001
  0
LINE
  8
Layer0$C$L0
 10
-0.740977
 20
-4.128127
 11
-0.702975
 21
-4.128127
  0
LINE
  8
Layer0$C$L0
 10
-0.740977
 20
-4.308127
 11
-0.702975
 21
-4.308127
  0
LINE
  8
Layer0$C$L0
 10
-0.760976
 20
-4.118127
 11
-0.682977
 21
-4.118127
  0
LINE
  8
Layer0$C$L0
 10
-0.760976
 20
-4.318127
 11
-0.682977
 21
-4.318127
  0
LINE
  8
Layer0$C$L0
 10
-0.770976
 20
-4.278127
 11
-0.770976
 21
-4.158127
  0
LINE
  8
Layer0$C$L0
 10
-0.672976
 20
-4.193127
 11
-0.672976
 21
-4.158127
  0
LINE
  8
Layer0$C$L0
 10
-0.810977
 20
-4.268127
 11
-0.810977
 21
-4.168127
  0
LINE
  8
Layer0$C$L0
 10
-0.632976
 20
-4.193127
 11
-0.632976
 21
-4.168127
  0
LINE
  8
Layer0$C$L0
 10
-0.672976
 20
-4.193127
 11
-0.632976
 21
-4.193127
  0
LINE
  8
Layer0$C$L0
 10
-0.672976
 20
-4.278127
 11
-0.672976
 21
-4.251127
  0
LINE
  8
Layer0$C$L0
 10
-0.632976
 20
-4.268127
 11
-0.632976
 21
-4.218127
  0
ARC
  8
Layer0$C$L0
 10
-0.692977
 20
-4.251127
 40
2.000000E-02
100
AcDbArc
 50
0.000000
 51
90.000003
  0
ARC
  8
Layer0$C$L0
 10
-0.522976
 20
-4.158127
 40
3.000000E-02
100
AcDbArc
 50
90.000003
 51
180.000005
  0
ARC
  8
Layer0$C$L0
 10
-0.484974
 20
-4.158127
 40
3.000000E-02
100
AcDbArc
 50
1.001791E-05
 51
89.999989
  0
ARC
  8
Layer0$C$L0
 10
-0.484974
 20
-4.278127
 40
3.000000E-02
100
AcDbArc
 50
270.000001
 51
360.000010
  0
ARC
  8
Layer0$C$L0
 10
-0.522976
 20
-4.278127
 40
3.000000E-02
100
AcDbArc
 50
180.000005
 51
270.000001
  0
ARC
  8
Layer0$C$L0
 10
-0.542974
 20
-4.168127
 40
5.000000E-02
100
AcDbArc
 50
90.000003
 51
180.000005
  0
ARC
  8
Layer0$C$L0
 10
-0.464975
 20
-4.168127
 40
5.000000E-02
100
AcDbArc
 50
0.000000
 51
90.000003
  0
ARC
  8
Layer0$C$L0
 10
-0.464975
 20
-4.268127
 40
5.000000E-02
100
AcDbArc
 50
270.000001
 51
360.000010
  0
ARC
  8
Layer0$C$L0
 10
-0.542974
 20
-4.268127
 40
5.000000E-02
100
AcDbArc
 50
180.000005
 51
270.000001
  0
LINE
  8
Layer0$C$L0
 10
-0.522976
 20
-4.128127
 11
-0.484974
 21
-4.128127
  0
LINE
  8
Layer0$C$L0
 10
-0.522976
 20
-4.308127
 11
-0.484974
 21
-4.308127
  0
LINE
  8
Layer0$C$L0
 10
-0.542974
 20
-4.118127
 11
-0.464975
 21
-4.118127
  0
LINE
  8
Layer0$C$L0
 10
-0.542974
 20
-4.318127
 11
-0.464975
 21
-4.318127
  0
LINE
  8
Layer0$C$L0
 10
-0.552975
 20
-4.278127
 11
-0.552975
 21
-4.158127
  0
LINE
  8
Layer0$C$L0
 10
-0.454975
 20
-4.278127
 11
-0.454975
 21
-4.158127
  0
LINE
  8
Layer0$C$L0
 10
-0.592977
 20
-4.268127
 11
-0.592977
 21
-4.168127
  0
LINE
  8
Layer0$C$L0
 10
-0.414974
 20
-4.268127
 11
-0.414974
 21
-4.168127
  0
LINE
  8
Layer0$C$L0
 10
-0.116974
 20
-4.308127
 11
2.102661E-02
 21
-4.308127
  0
LINE
  8
Layer0$C$L0
 10
-0.156975
 20
-4.318127
 11
2.102661E-02
 21
-4.318127
  0
LINE
  8
Layer0$C$L0
 10
-0.116974
 20
-4.308127
 11
-0.116974
 21
-4.118127
  0
LINE
  8
Layer0$C$L0
 10
-0.156975
 20
-4.318127
 11
-0.156975
 21
-4.118127
  0
ARC
  8
Layer0$C$L0
 10
0.169025
 20
-4.158127
 40
3.000000E-02
100
AcDbArc
 50
1.001791E-05
 51
89.999989
  0
ARC
  8
Layer0$C$L0
 10
0.169025
 20
-4.278127
 40
3.000000E-02
100
AcDbArc
 50
270.000001
 51
360.000010
  0
ARC
  8
Layer0$C$L0
 10
0.189026
 20
-4.168127
 40
5.000000E-02
100
AcDbArc
 50
0.000000
 51
90.000003
  0
ARC
  8
Layer0$C$L0
 10
0.189026
 20
-4.268127
 40
5.000000E-02
100
AcDbArc
 50
270.000001
 51
360.000010
  0
LINE
  8
Layer0$C$L0
 10
0.101025
 20
-4.128127
 11
0.169025
 21
-4.128127
  0
LINE
  8
Layer0$C$L0
 10
0.101025
 20
-4.308127
 11
0.169025
 21
-4.308127
  0
LINE
  8
Layer0$C$L0
 10
6.102562E-02
 20
-4.118127
 11
0.189026
 21
-4.118127
  0
LINE
  8
Layer0$C$L0
 10
6.102562E-02
 20
-4.318127
 11
0.189026
 21
-4.318127
  0
LINE
  8
Layer0$C$L0
 10
0.101025
 20
-4.308127
 11
0.101025
 21
-4.128127
  0
LINE
  8
Layer0$C$L0
 10
0.199026
 20
-4.278127
 11
0.199026
 21
-4.158127
  0
LINE
  8
Layer0$C$L0
 10
6.102562E-02
 20
-4.318127
 11
6.102562E-02
 21
-4.118127
  0
LINE
  8
Layer0$C$L0
 10
0.239025
 20
-4.268127
 11
0.239025
 21
-4.168127
  0
LINE
  8
Layer0$C$L0
 10
-0.374975
 20
-4.118127
 11
-0.334974
 21
-4.118127
  0
LINE
  8
Layer0$C$L0
 10
-0.236975
 20
-4.118127
 11
-0.196974
 21
-4.118127
  0
LINE
  8
Layer0$C$L0
 10
-0.156975
 20
-4.118127
 11
-0.116974
 21
-4.118127
  0
LINE
  8
Layer0$C$L0
 10
2.102661E-02
 20
-4.308127
 11
2.102661E-02
 21
-4.318127
  0
LINE
  8
Layer0$C$L0
 10
-1.158477
 20
-4.018127
 11
-1.270976
 21
-4.018127
  0
LINE
  8
Layer0$C$L0
 10
-1.158477
 20
-4.118127
 11
-1.158477
 21
-4.018127
  0
LINE
  8
Layer0$C$L0
 10
-1.058476
 20
-4.118127
 11
-1.158477
 21
-4.118127
  0
LINE
  8
Layer0$C$L0
 10
-1.058476
 20
-4.218127
 11
-1.058476
 21
-4.118127
  0
LINE
  8
Layer0$C$L0
 10
-1.158477
 20
-4.218127
 11
-1.058476
 21
-4.218127
  0
LINE
  8
Layer0$C$L0
 10
-1.158477
 20
-4.318127
 11
-1.158477
 21
-4.218127
  0
LINE
  8
Layer0$C$L0
 10
-1.270976
 20
-4.318127
 11
-1.158477
 21
-4.318127
  0
LINE
  8
Layer0$C$L0
 10
-1.133477
 20
-4.168127
 11
-1.270976
 21
-4.318127
  0
LINE
  8
Layer0$C$L0
 10
-1.270976
 20
-4.018127
 11
-1.133477
 21
-4.168127
  0
LINE
  8
Layer0$C$L0
 10
-1.370976
 20
-4.218127
 11
-1.370976
 21
-4.118127
  0
LINE
  8
Layer0$C$L0
 10
-1.208476
 20
-4.218127
 11
-1.370976
 21
-4.218127
  0
LINE
  8
Layer0$C$L0
 10
-1.208476
 20
-4.118127
 11
-1.208476
 21
-4.218127
  0
LINE
  8
Layer0$C$L0
 10
-1.370976
 20
-4.118127
 11
-1.208476
 21
-4.118127
  0
LINE
  8
Layer0$C$L0
 10
-1.550976
 20
2.076875
 11
7.799024
 21
2.076875
  0
LINE
  8
Layer0$C$L0
 10
-1.500976
 20
2.026875
 11
7.749023
 21
2.026875
  0
LINE
  8
Layer0$C$L0
 10
6.313024
 20
1.706874
 11
7.749023
 21
1.706874
  0
TEXT
  8
Layer10$C$L10
 10
-1.471101
 20
-4.753127
 40
8.000001E-02
  1
SIGN:
 41
0.968750
 72
     5
 11
-1.161101
 21
-4.753127
  0
TEXT
  8
Layer10$C$L10
 10
0.333220
 20
-4.753126
 40
8.000001E-02
  1
SIGN:
 41
0.968750
 72
     5
 11
0.643220
 21
-4.753126
  0
LINE
  8
Layer0$C$L0
 10
0.249023
 20
-4.973126
 11
0.249023
 21
-4.393128
  0
LINE
  8
Layer0$C$L0
 10
1.999023
 20
-4.393128
 11
-1.500976
 21
-4.393128
  0
TEXT
  8
Layer10$C$L10
 10
-1.215280
 20
-4.513128
 40
8.000000E-02
  1
%%uPRODUCT MANAGER%%u
 72
     5
 11
-3.667145E-02
 21
-4.513128
  0
TEXT
  8
Layer10$C$L10
 10
0.534719
 20
-4.513128
 40
8.000000E-02
  1
%%uDESIGN ENGINEER%%u
 72
     5
 11
1.713328
 21
-4.513128
  0
TEXT
  8
Layer10$C$L10
 10
5.636025
 20
-4.292759
 40
8.000001E-02
  1
NOT TO BE USED FOR PRODUCTION
 41
0.834821
 72
     5
 11
7.506024
 21
-4.292759
  0
TEXT
  8
Layer10$C$L10
 10
5.993524
 20
-4.172759
 40
8.000001E-02
  1
OUTLINE DIMENSIONS
 41
0.849265
 72
     5
 11
7.148524
 21
-4.172759
  0
DIMENSION
  8
Layer10$C$L10
  2
*D0
  1
<>(25.4mm)
 10
6.234375
 20
-0.715051
 11
6.877234
 21
-0.805051
  3
DIM1
100
AcDbAlignedDimension
 13
5.234375
 23
-0.107160
 14
6.234375
 24
-9.203546E-02
100
AcDbRotatedDimension
  0
DIMENSION
  8
Layer10$C$L10
  2
*D1
 70
     1
  1
<>(3.2mm)
 10
5.796875
 20
0.996920
 11
6.679565
 21
0.906920
  3
DIM1
100
AcDbAlignedDimension
 13
5.671875
 23
0.369755
 14
5.796875
 24
0.369755
  0
DIMENSION
  8
Layer10$C$L10
  2
*D2
 70
     1
  1
<>(19.0mm)
 10
4.410892
 20
0.373500
 11
4.410893
 21
0.772250
  3
DIM1
100
AcDbAlignedDimension
 13
3.625000
 23
-0.373500
 14
3.625000
 24
0.373500
  0
DIMENSION
  8
Layer10$C$L10
  2
*D3
 70
     1
  1
<>(111.1mm)
 10
3.625000
 20
-2.860882
 11
1.737500
 21
-2.950882
  3
DIM1
100
AcDbAlignedDimension
 13
-0.750000
 23
-0.373500
 14
3.625000
 24
-0.373500
  0
DIMENSION
  8
Layer10$C$L10
  2
*D4
 70
     1
  1
<>(93.6mm)
 10
3.281000
 20
-2.186642
 11
1.677500
 21
-2.276642
  3
DIM1
100
AcDbAlignedDimension
 13
-0.406000
 23
-5.000001E-02
 14
3.281000
 24
-5.000001E-02
  0
DIMENSION
  8
Layer10$C$L10
  2
*D5
 70
     1
  1
<>(88.9mm)
 10
3.188000
 20
-1.588018
 11
1.677500
 21
-1.678018
  3
DIM1
100
AcDbAlignedDimension
 13
-0.313000
 23
-5.000001E-02
 14
3.188000
 24
-5.000001E-02
  0
DIMENSION
  8
Layer10$C$L10
  2
*D6
 70
     1
  1
<>(73.0mm)
 10
2.875000
 20
-1.006809
 11
1.677500
 21
-1.096809
  3
DIM1
100
AcDbAlignedDimension
 13
-1.600282E-16
 23
-0.500000
 14
2.875000
 24
-0.500000
  0
DIMENSION
  8
Layer10$C$L10
  2
*D7
  1
<>(7.9mm)
 10
-1.015605
 20
-0.156000
 11
-1.015605
 21
0.694156
  3
DIM1
100
AcDbAlignedDimension
 13
-0.454933
 23
0.156000
 14
-0.459637
 24
-0.156000
 50
-90.000000
100
AcDbRotatedDimension
  0
LINE
  8
Layer0$C$L0
 10
3.138000
 20
0.000000
 11
3.238000
 21
0.000000
  0
LINE
  8
Layer0$C$L0
 10
3.188000
 20
-5.000001E-02
 11
3.188000
 21
4.999998E-02
  0
LINE
  8
Layer0$C$L0
 10
3.281000
 20
-5.000001E-02
 11
3.281000
 21
4.999998E-02
  0
LINE
  8
Layer0$C$L0
 10
3.231000
 20
5.551115E-17
 11
3.331000
 21
5.551115E-17
  0
LINE
  8
Layer0$C$L0
 10
-0.456000
 20
5.551115E-17
 11
-0.356000
 21
5.551115E-17
  0
LINE
  8
Layer0$C$L0
 10
-0.406000
 20
-5.000001E-02
 11
-0.406000
 21
4.999998E-02
  0
LINE
  8
Layer0$C$L0
 10
-0.313000
 20
-5.000001E-02
 11
-0.313000
 21
4.999998E-02
  0
LINE
  8
Layer0$C$L0
 10
-0.363000
 20
0.000000
 11
-0.263000
 21
0.000000
  0
ARC
  8
Layer0$C$L0
 10
5.734375
 20
0.000000
 40
0.373500
100
AcDbArc
 50
260.367030
 51
279.632972
  0
ARC
  8
Layer0$C$L0
 10
5.734375
 20
0.000000
 40
0.373500
100
AcDbArc
 50
80.367032
 51
99.632967
  0
LINE
  8
Layer0$C$L0
 10
5.7968750000
 20
-0.3682336109
 11
5.7968750000
 21
0.3682336109
  0
LINE
  8
Layer0$C$L0
 10
5.6718750000
 20
-0.3682336109
 11
5.6718750000
 21
0.3682336109
  0
CIRCLE
  5
3
100
AcDbEntity
  8
Layer0$C$L0
100
AcDbCircle
 10
5.7343750000
 20
0.0000000000
 40
0.5000000000
  0
LINE
  8
Layer0$C$L0
 10
0.0000000000
 20
-0.5000000000
 11
2.8750000000
 21
-0.5000000000
  0
LINE
  8
Layer0$C$L0
 10
0.0000000000
 20
0.5000000000
 11
2.8750000000
 21
0.5000000000
  0
ARC
  8
Layer0$C$L0
 10
3.1879999936
 20
-5.5511151231E-17
 40
0.1560000032
100
AcDbArc
 50
90.0000000000
 51
270.0000000000
  0
ARC
  8
Layer0$C$L0
 10
3.2809999883
 20
-5.5511151231E-17
 40
0.1560000032
100
AcDbArc
 50
270.0000000000
 51
450.0000000000
  0
ARC
  8
Layer0$C$L0
 10
-0.3129999936
 20
-5.5511151231E-17
 40
0.1560000032
100
AcDbArc
 50
270.0000000000
 51
450.0000000000
  0
ARC
  8
Layer0$C$L0
 10
-0.4059999883
 20
-5.5511151231E-17
 40
0.1560000032
100
AcDbArc
 50
90.0000000000
 51
270.0000000000
  0
LINE
  8
Layer0$C$L0
 10
2.8750000000
 20
-0.3734999895
 11
3.6250000298
 21
-0.3734999895
  0
LINE
  8
Layer0$C$L0
 10
2.8750000000
 20
0.3734999895
 11
3.6250000298
 21
0.3734999895
  0
LINE
  8
Layer0$C$L0
 10
-0.7500000298
 20
-0.3734999895
 11
0.0000000000
 21
-0.3734999895
  0
LINE
  8
Layer0$C$L0
 10
-0.7500000298
 20
0.3734999895
 11
0.0000000000
 21
0.3734999895
  0
LINE
  8
Layer0$C$L0
 10
3.6250000298
 20
-0.3734999895
 11
3.6250000298
 21
0.3734999895
  0
LINE
  8
Layer0$C$L0
 10
-0.7500000298
 20
-0.3734999895
 11
-0.7500000298
 21
0.3734999895
  0
LINE
  8
Layer0$C$L0
 10
2.8750000000
 20
-0.5000000000
 11
2.8750000000
 21
0.5000000000
  0
LINE
  8
Layer0$C$L0
 10
0.0000000000
 20
-0.5000000000
 11
0.0000000000
 21
0.5000000000
  0
LINE
  8
Layer0$C$L0
 10
3.2809999883
 20
0.1560000032
 11
3.1879999936
 21
0.1560000032
  0
LINE
  8
Layer0$C$L0
 10
3.2809999883
 20
-0.1560000032
 11
3.1879999936
 21
-0.1560000032
  0
LINE
  8
Layer0$C$L0
 10
-0.4059999883
 20
-0.1560000032
 11
-0.3129999936
 21
-0.1560000032
  0
LINE
  8
Layer0$C$L0
 10
-0.4059999883
 20
0.1560000032
 11
-0.3129999936
 21
0.1560000032
  0
ENDSEC
  0
EOF
