  0
SECTION
  2
HEADER
  9
$ACADVER
  1
AC1009
  9
$ANGBASE
 50
0.000000
  9
$ANGDIR
 70
     0
  9
$ATTDIA
 70
     0
  9
$ATTMODE
 70
     1
  9
$ATTREQ
 70
     1
  9
$AUNITS
 70
     0
  9
$AUPREC
 70
     0
  9
$AXISMODE
 70
     0
  9
$AXISUNIT
 10
0.000000
 20
0.000000
  9
$BLIPMODE
 70
     1
  9
$CECOLOR
 62
   256
  9
$CELTYPE
  6
BYLAYER
  9
$CHAMFERA
 40
0.000000
  9
$CHAMFERB
 40
0.000000
  9
$CLAYER
  8
0
  9
$COORDS
 70
     0
  9
$DIMALT
 70
     0
  9
$DIMALTD
 70
     2
  9
$DIMALTF
 40
25.400000
  9
$DIMAPOST
  1

  9
$DIMASO
 70
     1
  9
$DIMASZ
 40
0.153877
  9
$DIMBLK
  1

  9
$DIMBLK1
  1

  9
$DIMBLK2
  1

  9
$DIMCEN
 40
9.000000E-02
  9
$DIMDLE
 40
0.000000
  9
$DIMDLI
 40
0.380000
  9
$DIMEXE
 40
0.150000
  9
$DIMEXO
 40
0.100000
  9
$DIMLFAC
 40
1.000000
  9
$DIMLIM
 70
     0
  9
$DIMPOST
  1

  9
$DIMRND
 40
0.000000
  9
$DIMSCALE
 40
1.000000
  9
$DIMSE1
 70
     0
  9
$DIMSE2
 70
     0
  9
$DIMSHO
 70
     0
  9
$DIMTAD
 70
     0
  9
$DIMTIH
 70
     0
  9
$DIMTM
 40
0.000000
  9
$DIMTOH
 70
     1
  9
$DIMTOL
 70
     0
  9
$DIMTP
 40
0.000000
  9
$DIMTSZ
 40
0.000000
  9
$DIMTXT
 40
0.120000
  9
$DIMZIN
 70
     0
  9
$DRAGMODE
 70
     1
  9
$DWGCODEPAGE
  3
ansi_1252
  9
$ELEVATION
 40
0.000000
  9
$EXTMAX
 10
8.654023
 20
2.901875
 30
0.000000
  9
$EXTMIN
 10
-2.595977
 20
-5.848126
 30
0.000000
  9
$FASTZOOM
 70
     1
  9
$FILLETRAD
 40
6.250000E-02
  9
$FILLMODE
 70
     1
  9
$GRIDMODE
 70
     0
  9
$GRIDUNIT
 10
0.000000
 20
0.000000
  9
$INSBASE
 10
0.000000
 20
0.000000
 30
0.000000
  9
$LIMCHECK
 70
     0
  9
$LIMMAX
 10
8.654023
 20
2.901875
  9
$LIMMIN
 10
-2.595977
 20
-5.848126
  9
$LTSCALE
 40
1.000000
  9
$LUNITS
 70
     2
  9
$LUPREC
 70
     3
  9
$MEASUREMENT
 70
     0
  9
$MENU
  1
ACAD
  9
$MIRRTEXT
 70
     0
  9
$ORTHOMODE
 70
     0
  9
$OSMODE
 70
     0
  9
$PDMODE
 70
     0
  9
$PDSIZE
 40
0.000000
  9
$PLINEWID
 40
0.000000
  9
$PROXYGRAPHICS
 70
     0
  9
$QTEXTMODE
 70
     0
  9
$REGENMODE
 70
     1
  9
$SKETCHINC
 40
0.100000
  9
$SKPOLY
 70
     0
  9
$SNAPANG
 50
0.000000
  9
$SNAPBASE
 10
0.000000
 20
0.000000
  9
$SNAPISOPAIR
 70
     0
  9
$SNAPMODE
 70
     0
  9
$SNAPSTYLE
 70
     0
  9
$SNAPUNIT
 10
1.000000
 20
1.000000
  9
$SPLFRAME
 70
     0
  9
$SPLINESEGS
 70
     8
  9
$TDCREATE
 40
2453313.408079
  9
$TDINDWG
 40
0.000000
  9
$TDUPDATE
 40
2453313.408079
  9
$TDUSRTIMER
 40
0.000000
  9
$TEXTSIZE
 40
0.120000
  9
$TEXTSTYLE
  7
STANDARD
  9
$THICKNESS
 40
0.000000
  9
$TRACEWID
 40
5.000000E-02
  9
$USERI1
 70
     0
  9
$USERI2
 70
     0
  9
$USERI3
 70
     0
  9
$USERI4
 70
     0
  9
$USERI5
 70
     0
  9
$USERR1
 40
0.000000
  9
$USERR2
 40
0.000000
  9
$USERR3
 40
0.000000
  9
$USERR4
 40
0.000000
  9
$USERR5
 40
0.000000
  9
$USRTIMER
 70
     1
  9
$VIEWCTR
 10
3.029023
 20
-1.473126
  9
$VIEWDIR
 10
0.000000
 20
0.000000
 30
1.000000
  9
$VIEWSIZE
 40
8.750000
  0
ENDSEC
  0
SECTION
  2
TABLES
  0
TABLE
  2
LTYPE
 70
     4
  0
LTYPE
  2
SOLID
  3
Solid
 70
    64
 72
    65
 73
     0
 40
0.000000
  0
LTYPE
  2
CENTERLINE
  3
Centerline
 70
    64
 72
    65
 73
     4
 40
1.000000
 49
0.750000
 49
-6.250000E-02
 49
0.125000
 49
-6.250000E-02
  0
LTYPE
  2
CONSTRUCTION
  3
Construction
 70
    64
 72
    65
 73
     2
 40
4.000000E-02
 49
1.000000E-02
 49
-3.000000E-02
  0
LTYPE
  2
GAP
  3
Gap
 70
    64
 72
    65
 73
     3
 40
100.060000
 49
0.000000
 49
-6.000000E-02
 49
100.000000
  0
ENDTAB
  0
TABLE
  2
LAYER
 70
     2
  0
LAYER
  2
Layer0$C$L0
 70
     0
  6
SOLID
 62
     2
  0
LAYER
  2
Layer10$C$L10
 70
     0
  6
SOLID
 62
     4
  0
ENDTAB
  0
TABLE
  2
STYLE
 70
     1
  0
STYLE
  2
STANDARD
  3
txt
  4

 40
0.000000
 41
1.000000
 42
0.120000
 50
0.000000
 70
     0
 71
     0
  0
ENDTAB
  0
TABLE
  2
DIMSTYLE
 70
     2
  0
DIMSTYLE
  2
STANDARD
 70
     0
  3

  4

  5

  6

  7

 40
1.000000
 41
0.180000
 42
0.000000
 43
0.380000
 44
0.000000
 45
0.000000
 46
0.000000
 47
0.000000
 48
0.000000
140
0.156000
141
9.000000E-02
142
0.000000
143
1.000000
144
1.000000
145
0.000000
146
1.000000
147
7.800000E-02
 71
     0
 72
     0
 73
     0
 74
     0
 75
     0
 76
     0
 77
     3
 78
     0
170
     0
171
     0
172
     0
173
     0
174
     0
175
     0
176
     0
177
     0
178
     0
270
     2
271
     2
272
     2
273
     2
274
     2
275
     1
280
     0
281
     0
282
     0
283
     1
284
     0
285
     0
286
     0
287
     3
288
     0
  0
DIMSTYLE
  2
DIM1
 70
     1
  3

  4

  5

  6

  7

 40
1.000000
 41
0.153877
 42
0.100000
 43
0.380000
 44
0.150000
 45
0.000000
 46
0.000000
 47
0.000000
 48
0.000000
140
0.120000
141
9.000000E-02
142
0.000000
143
1.000000
144
1.000000
145
0.000000
146
1.000000
147
6.000000E-02
 71
     0
 72
     0
 73
     1
 74
     1
 75
     0
 76
     0
 77
     0
 78
     0
170
     0
171
     0
172
     0
173
     0
174
     0
175
     0
176
     0
177
     0
178
     0
270
     2
271
     2
272
     2
273
     2
274
     0
275
     1
280
     0
281
     0
282
     0
283
     1
284
     0
285
     0
286
     0
287
     3
288
     0
  0
ENDTAB
  0
TABLE
  2
APPID
  5
1
100
AcDbSymbolTable
 70
     1
  0
APPID
  5
2
100
AcDbSymbolTableRecord
100
AcDbRegAppTableRecord
  2
ACAD
 70
     0
  0
ENDTAB
  0
ENDSEC
  0
SECTION
  2
BLOCKS
  0
BLOCK
  8
Layer10$C$L10
  2
*D0
 70
     1
 10
0.000000
 20
0.000000
  0
SOLID
  8
Layer10$C$L10
 10
5.277878
 20
-0.859770
 11
5.277878
 21
-0.798902
 12
5.124875
 22
-0.829336
 13
5.124875
 23
-0.829336
  0
SOLID
  8
Layer10$C$L10
 10
6.190872
 20
-0.798902
 11
6.190872
 21
-0.859770
 12
6.343875
 22
-0.829336
 13
6.343875
 23
-0.829336
  0
LINE
  8
Layer10$C$L10
 10
5.124875
 20
-0.829336
 11
6.343875
 21
-0.829336
  0
LINE
  8
Layer10$C$L10
 10
6.343875
 20
-0.829336
 11
6.547625
 21
-0.829336
  0
LINE
  8
Layer10$C$L10
  6
GAP
 10
5.124875
 20
-0.100000
 11
5.124875
 21
-0.979336
  0
LINE
  8
Layer10$C$L10
  6
GAP
 10
6.343875
 20
-0.100000
 11
6.343875
 21
-0.979336
  0
TEXT
  8
Layer10$C$L10
 10
6.607625
 20
-0.889336
 40
0.120000
  1
%%c 1.22
 72
     5
 11
7.326737
 21
-0.889336
  0
TEXT
  8
Layer10$C$L10
 10
6.607625
 20
-1.069336
 40
0.120000
  1
(31.0mm)
 72
     5
 11
7.535537
 21
-1.069336
  0
ENDBLK
  8
Layer10$C$L10
  0
BLOCK
  8
Layer10$C$L10
  2
*D1
 70
     1
 10
0.000000
 20
0.000000
  0
SOLID
  8
Layer10$C$L10
 10
5.486373
 20
1.181350
 11
5.486373
 21
1.120481
 12
5.639375
 22
1.150916
 13
5.639375
 23
1.150916
  0
LINE
  8
Layer10$C$L10
 10
5.639375
 20
1.150916
 11
5.327375
 21
1.150916
  0
SOLID
  8
Layer10$C$L10
 10
5.982377
 20
1.120481
 11
5.982377
 21
1.181350
 12
5.829375
 22
1.150916
 13
5.829375
 23
1.150916
  0
LINE
  8
Layer10$C$L10
 10
5.829375
 20
1.150916
 11
6.310141
 21
1.150916
  0
LINE
  8
Layer10$C$L10
  6
GAP
 10
5.639375
 20
0.589364
 11
5.639375
 21
1.300916
  0
LINE
  8
Layer10$C$L10
  6
GAP
 10
5.829375
 20
0.589364
 11
5.829375
 21
1.300916
  0
TEXT
  8
Layer10$C$L10
 10
6.370141
 20
1.090916
 40
0.120000
  1
.19
 72
     5
 11
6.698053
 21
1.090916
  0
TEXT
  8
Layer10$C$L10
 10
6.370141
 20
0.910916
 40
0.120000
  1
(4.8mm)
 72
     5
 11
7.178053
 21
0.910916
  0
ENDBLK
  8
Layer10$C$L10
  0
BLOCK
  8
Layer10$C$L10
  2
*D2
 70
     1
 10
0.000000
 20
0.000000
  0
SOLID
  8
Layer10$C$L10
 10
4.400995
 20
0.345497
 11
4.461863
 21
0.345497
 12
4.431429
 22
0.498500
 13
4.431429
 23
0.498500
  0
LINE
  8
Layer10$C$L10
 10
4.431429
 20
0.498500
 11
4.431429
 21
0.210000
  0
SOLID
  8
Layer10$C$L10
 10
4.461863
 20
-0.345497
 11
4.400995
 21
-0.345497
 12
4.431429
 22
-0.498500
 13
4.431429
 23
-0.498500
  0
LINE
  8
Layer10$C$L10
 10
4.431429
 20
-0.498500
 11
4.431429
 21
-0.210000
  0
LINE
  8
Layer10$C$L10
  6
GAP
 10
3.725000
 20
0.498500
 11
4.581429
 21
0.498500
  0
LINE
  8
Layer10$C$L10
  6
GAP
 10
3.725000
 20
-0.498500
 11
4.581429
 21
-0.498500
  0
TEXT
  8
Layer10$C$L10
 10
3.967473
 20
3.000000E-02
 40
0.120000
  1
1.00
 72
     5
 11
4.415385
 21
3.000000E-02
  0
TEXT
  8
Layer10$C$L10
 10
3.967473
 20
-0.150000
 40
0.120000
  1
(25.3mm)
 72
     5
 11
4.895385
 21
-0.150000
  0
ENDBLK
  8
Layer10$C$L10
  0
BLOCK
  8
Layer10$C$L10
  2
*D3
 70
     1
 10
0.000000
 20
0.000000
  0
SOLID
  8
Layer10$C$L10
 10
-0.596998
 20
-3.043125
 11
-0.596998
 21
-2.982257
 12
-0.750000
 22
-3.012691
 13
-0.750000
 23
-3.012691
  0
LINE
  8
Layer10$C$L10
 10
-0.750000
 20
-3.012691
 11
1.153544
 21
-3.012691
  0
SOLID
  8
Layer10$C$L10
 10
3.471998
 20
-2.982257
 11
3.471998
 21
-3.043125
 12
3.625000
 22
-3.012691
 13
3.625000
 23
-3.012691
  0
LINE
  8
Layer10$C$L10
 10
3.625000
 20
-3.012691
 11
1.721456
 21
-3.012691
  0
LINE
  8
Layer10$C$L10
  6
GAP
 10
-0.750000
 20
-0.598500
 11
-0.750000
 21
-3.162691
  0
LINE
  8
Layer10$C$L10
  6
GAP
 10
3.625000
 20
-0.598500
 11
3.625000
 21
-3.162691
  0
TEXT
  8
Layer10$C$L10
 10
1.213544
 20
-3.072691
 40
0.120000
  1
4.38
 72
     5
 11
1.661456
 21
-3.072691
  0
TEXT
  8
Layer10$C$L10
 10
1.213544
 20
-3.252691
 40
0.120000
  1
(111.1mm)
 72
     5
 11
2.261456
 21
-3.252691
  0
ENDBLK
  8
Layer10$C$L10
  0
BLOCK
  8
Layer10$C$L10
  2
*D4
 70
     1
 10
0.000000
 20
0.000000
  0
SOLID
  8
Layer10$C$L10
 10
-0.252997
 20
-2.366116
 11
-0.252997
 21
-2.305248
 12
-0.406000
 22
-2.335682
 13
-0.406000
 23
-2.335682
  0
LINE
  8
Layer10$C$L10
 10
-0.406000
 20
-2.335682
 11
1.153544
 21
-2.335682
  0
SOLID
  8
Layer10$C$L10
 10
3.127997
 20
-2.305248
 11
3.127997
 21
-2.366116
 12
3.281000
 22
-2.335682
 13
3.281000
 23
-2.335682
  0
LINE
  8
Layer10$C$L10
 10
3.281000
 20
-2.335682
 11
1.721456
 21
-2.335682
  0
LINE
  8
Layer10$C$L10
  6
GAP
 10
-0.406000
 20
-0.150000
 11
-0.406000
 21
-2.485682
  0
LINE
  8
Layer10$C$L10
  6
GAP
 10
3.281000
 20
-0.150000
 11
3.281000
 21
-2.485682
  0
TEXT
  8
Layer10$C$L10
 10
1.213544
 20
-2.395682
 40
0.120000
  1
3.69
 72
     5
 11
1.661456
 21
-2.395682
  0
TEXT
  8
Layer10$C$L10
 10
1.213544
 20
-2.575682
 40
0.120000
  1
(93.6mm)
 72
     5
 11
2.141456
 21
-2.575682
  0
ENDBLK
  8
Layer10$C$L10
  0
BLOCK
  8
Layer10$C$L10
  2
*D5
 70
     1
 10
0.000000
 20
0.000000
  0
SOLID
  8
Layer10$C$L10
 10
-0.190998
 20
-1.680644
 11
-0.190998
 21
-1.619776
 12
-0.344000
 22
-1.650210
 13
-0.344000
 23
-1.650210
  0
LINE
  8
Layer10$C$L10
 10
-0.344000
 20
-1.650210
 11
1.153544
 21
-1.650210
  0
SOLID
  8
Layer10$C$L10
 10
3.065998
 20
-1.619776
 11
3.065998
 21
-1.680644
 12
3.219000
 22
-1.650210
 13
3.219000
 23
-1.650210
  0
LINE
  8
Layer10$C$L10
 10
3.219000
 20
-1.650210
 11
1.721456
 21
-1.650210
  0
LINE
  8
Layer10$C$L10
  6
GAP
 10
-0.344000
 20
-0.150000
 11
-0.344000
 21
-1.800210
  0
LINE
  8
Layer10$C$L10
  6
GAP
 10
3.219000
 20
-0.150000
 11
3.219000
 21
-1.800210
  0
TEXT
  8
Layer10$C$L10
 10
1.213544
 20
-1.710210
 40
0.120000
  1
3.56
 72
     5
 11
1.661456
 21
-1.710210
  0
TEXT
  8
Layer10$C$L10
 10
1.213544
 20
-1.890210
 40
0.120000
  1
(90.5mm)
 72
     5
 11
2.141456
 21
-1.890210
  0
ENDBLK
  8
Layer10$C$L10
  0
BLOCK
  8
Layer10$C$L10
  2
*D6
 70
     1
 10
0.000000
 20
0.000000
  0
SOLID
  8
Layer10$C$L10
 10
0.153002
 20
-0.910546
 11
0.153002
 21
-0.849678
 12
0.000000
 22
-0.880112
 13
0.000000
 23
-0.880112
  0
LINE
  8
Layer10$C$L10
 10
0.000000
 20
-0.880112
 11
1.153544
 21
-0.880112
  0
SOLID
  8
Layer10$C$L10
 10
2.721998
 20
-0.849678
 11
2.721998
 21
-0.910546
 12
2.875000
 22
-0.880112
 13
2.875000
 23
-0.880112
  0
LINE
  8
Layer10$C$L10
 10
2.875000
 20
-0.880112
 11
1.721456
 21
-0.880112
  0
LINE
  8
Layer10$C$L10
  6
GAP
 10
0.000000
 20
-0.709500
 11
0.000000
 21
-1.030112
  0
LINE
  8
Layer10$C$L10
  6
GAP
 10
2.875000
 20
-0.709500
 11
2.875000
 21
-1.030112
  0
TEXT
  8
Layer10$C$L10
 10
1.213544
 20
-0.940112
 40
0.120000
  1
2.88
 72
     5
 11
1.661456
 21
-0.940112
  0
TEXT
  8
Layer10$C$L10
 10
1.213544
 20
-1.120112
 40
0.120000
  1
(73.0mm)
 72
     5
 11
2.141456
 21
-1.120112
  0
ENDBLK
  8
Layer10$C$L10
  0
BLOCK
  8
Layer10$C$L10
  2
*D7
 70
     1
 10
0.000000
 20
0.000000
  0
SOLID
  8
Layer10$C$L10
 10
-0.968851
 20
0.309002
 11
-1.029719
 21
0.309002
 12
-0.999285
 22
0.156000
 13
-0.999285
 23
0.156000
  0
LINE
  8
Layer10$C$L10
 10
-0.999285
 20
0.156000
 11
-0.999285
 21
0.772170
  0
SOLID
  8
Layer10$C$L10
 10
-1.029719
 20
-0.309002
 11
-0.968851
 21
-0.309002
 12
-0.999285
 22
-0.156000
 13
-0.999285
 23
-0.156000
  0
LINE
  8
Layer10$C$L10
 10
-0.999285
 20
-0.156000
 11
-0.999285
 21
-0.468000
  0
LINE
  8
Layer10$C$L10
  6
GAP
 10
-0.572401
 20
0.156000
 11
-1.149285
 21
0.156000
  0
LINE
  8
Layer10$C$L10
  6
GAP
 10
-0.604226
 20
-0.156000
 11
-1.149285
 21
-0.156000
  0
TEXT
  8
Layer10$C$L10
 10
-1.403241
 20
1.012170
 40
0.120000
  1
.31
 72
     5
 11
-1.075329
 21
1.012170
  0
TEXT
  8
Layer10$C$L10
 10
-1.403241
 20
0.832170
 40
0.120000
  1
(7.9mm)
 72
     5
 11
-0.595329
 21
0.832170
  0
ENDBLK
  8
Layer10$C$L10
  0
BLOCK
  8
Layer0$C$L0
  2
*X0
 70
     1
 10
0.000000
 20
0.000000
  0
LINE
  8
Layer0$C$L0
 10
-1.270976
 20
-4.318127
 11
-1.158477
 21
-4.318127
  0
LINE
  8
Layer0$C$L0
 10
-1.158477
 20
-4.305626
 11
-1.259518
 21
-4.305626
  0
LINE
  8
Layer0$C$L0
 10
-1.248059
 20
-4.293127
 11
-1.158477
 21
-4.293127
  0
LINE
  8
Layer0$C$L0
 10
-1.158477
 20
-4.280627
 11
-1.236601
 21
-4.280627
  0
LINE
  8
Layer0$C$L0
 10
-1.225143
 20
-4.268126
 11
-1.158477
 21
-4.268126
  0
LINE
  8
Layer0$C$L0
 10
-1.158477
 20
-4.255627
 11
-1.213685
 21
-4.255627
  0
LINE
  8
Layer0$C$L0
 10
-1.202227
 20
-4.243126
 11
-1.158477
 21
-4.243126
  0
LINE
  8
Layer0$C$L0
 10
-1.158477
 20
-4.230627
 11
-1.190768
 21
-4.230627
  0
LINE
  8
Layer0$C$L0
 10
-1.208476
 20
-4.218127
 11
-1.370976
 21
-4.218127
  0
LINE
  8
Layer0$C$L0
 10
-1.058476
 20
-4.218127
 11
-1.179310
 21
-4.218127
  0
LINE
  8
Layer0$C$L0
 10
-1.208476
 20
-4.205627
 11
-1.370976
 21
-4.205627
  0
LINE
  8
Layer0$C$L0
 10
-1.058476
 20
-4.205627
 11
-1.167851
 21
-4.205626
  0
LINE
  8
Layer0$C$L0
 10
-1.208476
 20
-4.193127
 11
-1.370976
 21
-4.193127
  0
LINE
  8
Layer0$C$L0
 10
-1.058476
 20
-4.193127
 11
-1.156393
 21
-4.193127
  0
LINE
  8
Layer0$C$L0
 10
-1.208476
 20
-4.180627
 11
-1.370976
 21
-4.180627
  0
LINE
  8
Layer0$C$L0
 10
-1.058476
 20
-4.180627
 11
-1.144935
 21
-4.180626
  0
LINE
  8
Layer0$C$L0
 10
-1.208476
 20
-4.168127
 11
-1.370976
 21
-4.168127
  0
LINE
  8
Layer0$C$L0
 10
-1.058476
 20
-4.168127
 11
-1.133477
 21
-4.168127
  0
LINE
  8
Layer0$C$L0
 10
-1.208476
 20
-4.155627
 11
-1.370976
 21
-4.155627
  0
LINE
  8
Layer0$C$L0
 10
-1.058476
 20
-4.155627
 11
-1.144936
 21
-4.155627
  0
LINE
  8
Layer0$C$L0
 10
-1.208476
 20
-4.143127
 11
-1.370976
 21
-4.143127
  0
LINE
  8
Layer0$C$L0
 10
-1.058476
 20
-4.143127
 11
-1.156394
 21
-4.143127
  0
LINE
  8
Layer0$C$L0
 10
-1.208476
 20
-4.130627
 11
-1.370976
 21
-4.130627
  0
LINE
  8
Layer0$C$L0
 10
-1.058476
 20
-4.130627
 11
-1.167852
 21
-4.130627
  0
LINE
  8
Layer0$C$L0
 10
-1.158477
 20
-4.118127
 11
-1.179310
 21
-4.118127
  0
LINE
  8
Layer0$C$L0
 10
-1.158477
 20
-4.105627
 11
-1.190768
 21
-4.105627
  0
LINE
  8
Layer0$C$L0
 10
-1.158477
 20
-4.093127
 11
-1.202227
 21
-4.093127
  0
LINE
  8
Layer0$C$L0
 10
-1.158477
 20
-4.080626
 11
-1.213685
 21
-4.080627
  0
LINE
  8
Layer0$C$L0
 10
-1.158477
 20
-4.068127
 11
-1.225143
 21
-4.068127
  0
LINE
  8
Layer0$C$L0
 10
-1.158477
 20
-4.055627
 11
-1.236602
 21
-4.055627
  0
LINE
  8
Layer0$C$L0
 10
-1.158477
 20
-4.043127
 11
-1.248060
 21
-4.043127
  0
LINE
  8
Layer0$C$L0
 10
-1.158477
 20
-4.030627
 11
-1.259519
 21
-4.030627
  0
ENDBLK
  8
Layer0$C$L0
  0
BLOCK
  8
Layer0$C$L0
  2
*X1
 70
     1
 10
0.000000
 20
0.000000
  0
LINE
  8
Layer0$C$L0
 10
-0.760976
 20
-4.318127
 11
-0.682977
 21
-4.318127
  0
LINE
  8
Layer0$C$L0
 10
-0.752458
 20
-4.305843
 11
-0.793965
 21
-4.305626
  0
LINE
  8
Layer0$C$L0
 10
-0.649987
 20
-4.305626
 11
-0.691495
 21
-4.305843
  0
LINE
  8
Layer0$C$L0
 10
-0.766921
 20
-4.293127
 11
-0.804215
 21
-4.293127
  0
LINE
  8
Layer0$C$L0
 10
-0.639737
 20
-4.293127
 11
-0.677032
 21
-4.293127
  0
LINE
  8
Layer0$C$L0
 10
-0.770833
 20
-4.281067
 11
-0.809327
 21
-4.280627
  0
LINE
  8
Layer0$C$L0
 10
-0.634625
 20
-4.280627
 11
-0.673120
 21
-4.281067
  0
LINE
  8
Layer0$C$L0
 10
-0.770976
 20
-4.268126
 11
-0.810977
 21
-4.268127
  0
LINE
  8
Layer0$C$L0
 10
-0.632976
 20
-4.268127
 11
-0.672976
 21
-4.268126
  0
LINE
  8
Layer0$C$L0
 10
-0.770976
 20
-4.255627
 11
-0.810977
 21
-4.255627
  0
LINE
  8
Layer0$C$L0
 10
-0.632976
 20
-4.255627
 11
-0.672976
 21
-4.255627
  0
LINE
  8
Layer0$C$L0
 10
-0.770976
 20
-4.243126
 11
-0.810977
 21
-4.243127
  0
LINE
  8
Layer0$C$L0
 10
-0.632976
 20
-4.243127
 11
-0.674500
 21
-4.243474
  0
LINE
  8
Layer0$C$L0
 10
-0.770976
 20
-4.230627
 11
-0.810977
 21
-4.230628
  0
LINE
  8
Layer0$C$L0
 10
-0.632976
 20
-4.230628
 11
-0.717977
 21
-4.230627
  0
LINE
  8
Layer0$C$L0
 10
-0.770976
 20
-4.218127
 11
-0.810977
 21
-4.218127
  0
LINE
  8
Layer0$C$L0
 10
-0.770976
 20
-4.205626
 11
-0.810977
 21
-4.205627
  0
LINE
  8
Layer0$C$L0
 10
-0.770976
 20
-4.193127
 11
-0.810977
 21
-4.193127
  0
LINE
  8
Layer0$C$L0
 10
-0.632976
 20
-4.193127
 11
-0.672976
 21
-4.193127
  0
LINE
  8
Layer0$C$L0
 10
-0.770976
 20
-4.180626
 11
-0.810977
 21
-4.180627
  0
LINE
  8
Layer0$C$L0
 10
-0.632976
 20
-4.180626
 11
-0.672976
 21
-4.180626
  0
LINE
  8
Layer0$C$L0
 10
-0.770976
 20
-4.168127
 11
-0.810976
 21
-4.168127
  0
LINE
  8
Layer0$C$L0
 10
-0.632977
 20
-4.168127
 11
-0.672976
 21
-4.168127
  0
LINE
  8
Layer0$C$L0
 10
-0.770854
 20
-4.155627
 11
-0.809327
 21
-4.155627
  0
LINE
  8
Layer0$C$L0
 10
-0.634625
 20
-4.155627
 11
-0.673099
 21
-4.155627
  0
LINE
  8
Layer0$C$L0
 10
-0.766921
 20
-4.143126
 11
-0.804214
 21
-4.143126
  0
LINE
  8
Layer0$C$L0
 10
-0.639738
 20
-4.143126
 11
-0.677032
 21
-4.143126
  0
LINE
  8
Layer0$C$L0
 10
-0.752915
 20
-4.130627
 11
-0.793964
 21
-4.130627
  0
LINE
  8
Layer0$C$L0
 10
-0.649988
 20
-4.130627
 11
-0.691037
 21
-4.130627
  0
ENDBLK
  8
Layer0$C$L0
  0
BLOCK
  8
Layer0$C$L0
  2
*X2
 70
     1
 10
0.000000
 20
0.000000
  0
LINE
  8
Layer0$C$L0
 10
-0.542974
 20
-4.318127
 11
-0.464975
 21
-4.318127
  0
LINE
  8
Layer0$C$L0
 10
-0.534456
 20
-4.305843
 11
-0.575965
 21
-4.305626
  0
LINE
  8
Layer0$C$L0
 10
-0.431986
 20
-4.305626
 11
-0.473494
 21
-4.305843
  0
LINE
  8
Layer0$C$L0
 10
-0.548920
 20
-4.293127
 11
-0.586215
 21
-4.293127
  0
LINE
  8
Layer0$C$L0
 10
-0.421736
 20
-4.293127
 11
-0.459030
 21
-4.293127
  0
LINE
  8
Layer0$C$L0
 10
-0.552832
 20
-4.281067
 11
-0.591327
 21
-4.280627
  0
LINE
  8
Layer0$C$L0
 10
-0.416624
 20
-4.280627
 11
-0.455118
 21
-4.281067
  0
LINE
  8
Layer0$C$L0
 10
-0.552975
 20
-4.268126
 11
-0.592977
 21
-4.268127
  0
LINE
  8
Layer0$C$L0
 10
-0.414974
 20
-4.268127
 11
-0.454975
 21
-4.268126
  0
LINE
  8
Layer0$C$L0
 10
-0.552975
 20
-4.255627
 11
-0.592977
 21
-4.255627
  0
LINE
  8
Layer0$C$L0
 10
-0.414974
 20
-4.255627
 11
-0.454975
 21
-4.255627
  0
LINE
  8
Layer0$C$L0
 10
-0.552975
 20
-4.243126
 11
-0.592977
 21
-4.243127
  0
LINE
  8
Layer0$C$L0
 10
-0.414974
 20
-4.243127
 11
-0.454975
 21
-4.243126
  0
LINE
  8
Layer0$C$L0
 10
-0.552975
 20
-4.230627
 11
-0.592977
 21
-4.230628
  0
LINE
  8
Layer0$C$L0
 10
-0.414974
 20
-4.230628
 11
-0.454975
 21
-4.230627
  0
LINE
  8
Layer0$C$L0
 10
-0.552975
 20
-4.218127
 11
-0.592977
 21
-4.218127
  0
LINE
  8
Layer0$C$L0
 10
-0.414974
 20
-4.218127
 11
-0.454975
 21
-4.218127
  0
LINE
  8
Layer0$C$L0
 10
-0.552975
 20
-4.205626
 11
-0.592977
 21
-4.205627
  0
LINE
  8
Layer0$C$L0
 10
-0.414974
 20
-4.205627
 11
-0.454975
 21
-4.205626
  0
LINE
  8
Layer0$C$L0
 10
-0.552975
 20
-4.193127
 11
-0.592977
 21
-4.193127
  0
LINE
  8
Layer0$C$L0
 10
-0.414974
 20
-4.193127
 11
-0.454975
 21
-4.193127
  0
LINE
  8
Layer0$C$L0
 10
-0.552975
 20
-4.180626
 11
-0.592977
 21
-4.180627
  0
LINE
  8
Layer0$C$L0
 10
-0.414974
 20
-4.180627
 11
-0.454975
 21
-4.180626
  0
LINE
  8
Layer0$C$L0
 10
-0.552975
 20
-4.168127
 11
-0.592976
 21
-4.168127
  0
LINE
  8
Layer0$C$L0
 10
-0.414975
 20
-4.168127
 11
-0.454975
 21
-4.168127
  0
LINE
  8
Layer0$C$L0
 10
-0.552853
 20
-4.155627
 11
-0.591327
 21
-4.155627
  0
LINE
  8
Layer0$C$L0
 10
-0.416624
 20
-4.155627
 11
-0.455097
 21
-4.155627
  0
LINE
  8
Layer0$C$L0
 10
-0.548920
 20
-4.143126
 11
-0.586214
 21
-4.143126
  0
LINE
  8
Layer0$C$L0
 10
-0.421737
 20
-4.143126
 11
-0.459030
 21
-4.143126
  0
LINE
  8
Layer0$C$L0
 10
-0.534914
 20
-4.130627
 11
-0.575964
 21
-4.130627
  0
LINE
  8
Layer0$C$L0
 10
-0.431987
 20
-4.130627
 11
-0.473036
 21
-4.130627
  0
ENDBLK
  8
Layer0$C$L0
  0
BLOCK
  8
Layer0$C$L0
  2
*X3
 70
     1
 10
0.000000
 20
0.000000
  0
LINE
  8
Layer0$C$L0
 10
-0.324974
 20
-4.318127
 11
-0.246975
 21
-4.318127
  0
LINE
  8
Layer0$C$L0
 10
-0.316456
 20
-4.305843
 11
-0.357964
 21
-4.305626
  0
LINE
  8
Layer0$C$L0
 10
-0.213984
 20
-4.305626
 11
-0.255493
 21
-4.305843
  0
LINE
  8
Layer0$C$L0
 10
-0.330919
 20
-4.293127
 11
-0.368214
 21
-4.293127
  0
LINE
  8
Layer0$C$L0
 10
-0.203735
 20
-4.293127
 11
-0.241030
 21
-4.293127
  0
LINE
  8
Layer0$C$L0
 10
-0.334831
 20
-4.281067
 11
-0.373325
 21
-4.280627
  0
LINE
  8
Layer0$C$L0
 10
-0.198623
 20
-4.280627
 11
-0.237118
 21
-4.281067
  0
LINE
  8
Layer0$C$L0
 10
-0.334974
 20
-4.268126
 11
-0.374975
 21
-4.268127
  0
LINE
  8
Layer0$C$L0
 10
-0.196974
 20
-4.268127
 11
-0.236975
 21
-4.268126
  0
LINE
  8
Layer0$C$L0
 10
-0.334974
 20
-4.255627
 11
-0.374975
 21
-4.255627
  0
LINE
  8
Layer0$C$L0
 10
-0.196974
 20
-4.255627
 11
-0.236975
 21
-4.255627
  0
LINE
  8
Layer0$C$L0
 10
-0.334974
 20
-4.243126
 11
-0.374975
 21
-4.243127
  0
LINE
  8
Layer0$C$L0
 10
-0.196974
 20
-4.243127
 11
-0.236975
 21
-4.243126
  0
LINE
  8
Layer0$C$L0
 10
-0.334974
 20
-4.230627
 11
-0.374975
 21
-4.230628
  0
LINE
  8
Layer0$C$L0
 10
-0.196974
 20
-4.230628
 11
-0.236975
 21
-4.230627
  0
LINE
  8
Layer0$C$L0
 10
-0.334974
 20
-4.218127
 11
-0.374975
 21
-4.218127
  0
LINE
  8
Layer0$C$L0
 10
-0.196974
 20
-4.218127
 11
-0.236975
 21
-4.218127
  0
LINE
  8
Layer0$C$L0
 10
-0.334974
 20
-4.205626
 11
-0.374975
 21
-4.205627
  0
LINE
  8
Layer0$C$L0
 10
-0.196974
 20
-4.205627
 11
-0.236975
 21
-4.205626
  0
LINE
  8
Layer0$C$L0
 10
-0.334974
 20
-4.193127
 11
-0.374975
 21
-4.193127
  0
LINE
  8
Layer0$C$L0
 10
-0.196974
 20
-4.193127
 11
-0.236975
 21
-4.193127
  0
LINE
  8
Layer0$C$L0
 10
-0.334974
 20
-4.180626
 11
-0.374975
 21
-4.180627
  0
LINE
  8
Layer0$C$L0
 10
-0.196974
 20
-4.180627
 11
-0.236975
 21
-4.180626
  0
LINE
  8
Layer0$C$L0
 10
-0.334974
 20
-4.168127
 11
-0.374975
 21
-4.168128
  0
LINE
  8
Layer0$C$L0
 10
-0.196974
 20
-4.168128
 11
-0.236975
 21
-4.168127
  0
LINE
  8
Layer0$C$L0
 10
-0.334974
 20
-4.155627
 11
-0.374975
 21
-4.155627
  0
LINE
  8
Layer0$C$L0
 10
-0.196974
 20
-4.155627
 11
-0.236975
 21
-4.155627
  0
LINE
  8
Layer0$C$L0
 10
-0.334974
 20
-4.143126
 11
-0.374975
 21
-4.143127
  0
LINE
  8
Layer0$C$L0
 10
-0.196974
 20
-4.143127
 11
-0.236975
 21
-4.143126
  0
LINE
  8
Layer0$C$L0
 10
-0.334974
 20
-4.130627
 11
-0.374975
 21
-4.130627
  0
LINE
  8
Layer0$C$L0
 10
-0.196974
 20
-4.130627
 11
-0.236975
 21
-4.130627
  0
ENDBLK
  8
Layer0$C$L0
  0
BLOCK
  8
Layer0$C$L0
  2
*X4
 70
     1
 10
0.000000
 20
0.000000
  0
LINE
  8
Layer0$C$L0
 10
-0.156975
 20
-4.318127
 11
2.102661E-02
 21
-4.318127
  0
LINE
  8
Layer0$C$L0
 10
-0.116974
 20
-4.305626
 11
-0.156975
 21
-4.305626
  0
LINE
  8
Layer0$C$L0
 10
-0.156975
 20
-4.293127
 11
-0.116974
 21
-4.293127
  0
LINE
  8
Layer0$C$L0
 10
-0.116974
 20
-4.280627
 11
-0.156975
 21
-4.280627
  0
LINE
  8
Layer0$C$L0
 10
-0.156975
 20
-4.268126
 11
-0.116974
 21
-4.268126
  0
LINE
  8
Layer0$C$L0
 10
-0.116974
 20
-4.255627
 11
-0.156975
 21
-4.255627
  0
LINE
  8
Layer0$C$L0
 10
-0.156975
 20
-4.243126
 11
-0.116974
 21
-4.243126
  0
LINE
  8
Layer0$C$L0
 10
-0.116974
 20
-4.230627
 11
-0.156975
 21
-4.230627
  0
LINE
  8
Layer0$C$L0
 10
-0.156975
 20
-4.218127
 11
-0.116974
 21
-4.218127
  0
LINE
  8
Layer0$C$L0
 10
-0.116974
 20
-4.205626
 11
-0.156975
 21
-4.205626
  0
LINE
  8
Layer0$C$L0
 10
-0.156975
 20
-4.193127
 11
-0.116974
 21
-4.193127
  0
LINE
  8
Layer0$C$L0
 10
-0.116974
 20
-4.180626
 11
-0.156975
 21
-4.180626
  0
LINE
  8
Layer0$C$L0
 10
-0.156975
 20
-4.168127
 11
-0.116974
 21
-4.168127
  0
LINE
  8
Layer0$C$L0
 10
-0.116974
 20
-4.155627
 11
-0.156975
 21
-4.155627
  0
LINE
  8
Layer0$C$L0
 10
-0.156975
 20
-4.143126
 11
-0.116974
 21
-4.143126
  0
LINE
  8
Layer0$C$L0
 10
-0.116974
 20
-4.130627
 11
-0.156975
 21
-4.130627
  0
ENDBLK
  8
Layer0$C$L0
  0
BLOCK
  8
Layer0$C$L0
  2
*X5
 70
     1
 10
0.000000
 20
0.000000
  0
LINE
  8
Layer0$C$L0
 10
6.102562E-02
 20
-4.318127
 11
0.189026
 21
-4.318127
  0
LINE
  8
Layer0$C$L0
 10
0.101025
 20
-4.305626
 11
6.102562E-02
 21
-4.305626
  0
LINE
  8
Layer0$C$L0
 10
0.222015
 20
-4.305626
 11
0.180506
 21
-4.305843
  0
LINE
  8
Layer0$C$L0
 10
0.101025
 20
-4.293127
 11
6.102562E-02
 21
-4.293127
  0
LINE
  8
Layer0$C$L0
 10
0.232265
 20
-4.293127
 11
0.194968
 21
-4.293127
  0
LINE
  8
Layer0$C$L0
 10
0.101025
 20
-4.280627
 11
6.102562E-02
 21
-4.280627
  0
LINE
  8
Layer0$C$L0
 10
0.237377
 20
-4.280627
 11
0.198881
 21
-4.281067
  0
LINE
  8
Layer0$C$L0
 10
0.101025
 20
-4.268126
 11
6.102562E-02
 21
-4.268126
  0
LINE
  8
Layer0$C$L0
 10
0.239025
 20
-4.268127
 11
0.199026
 21
-4.268126
  0
LINE
  8
Layer0$C$L0
 10
0.101025
 20
-4.255627
 11
6.102562E-02
 21
-4.255627
  0
LINE
  8
Layer0$C$L0
 10
0.239025
 20
-4.255627
 11
0.199026
 21
-4.255627
  0
LINE
  8
Layer0$C$L0
 10
0.101025
 20
-4.243126
 11
6.102562E-02
 21
-4.243126
  0
LINE
  8
Layer0$C$L0
 10
0.239025
 20
-4.243127
 11
0.199026
 21
-4.243126
  0
LINE
  8
Layer0$C$L0
 10
0.101025
 20
-4.230627
 11
6.102562E-02
 21
-4.230627
  0
LINE
  8
Layer0$C$L0
 10
0.239025
 20
-4.230628
 11
0.199026
 21
-4.230627
  0
LINE
  8
Layer0$C$L0
 10
0.101025
 20
-4.218127
 11
6.102562E-02
 21
-4.218127
  0
LINE
  8
Layer0$C$L0
 10
0.239025
 20
-4.218127
 11
0.199026
 21
-4.218127
  0
LINE
  8
Layer0$C$L0
 10
0.101025
 20
-4.205626
 11
6.102562E-02
 21
-4.205626
  0
LINE
  8
Layer0$C$L0
 10
0.239025
 20
-4.205627
 11
0.199026
 21
-4.205626
  0
LINE
  8
Layer0$C$L0
 10
0.101025
 20
-4.193127
 11
6.102562E-02
 21
-4.193127
  0
LINE
  8
Layer0$C$L0
 10
0.239025
 20
-4.193127
 11
0.199026
 21
-4.193127
  0
LINE
  8
Layer0$C$L0
 10
0.101025
 20
-4.180626
 11
6.102562E-02
 21
-4.180626
  0
LINE
  8
Layer0$C$L0
 10
0.239025
 20
-4.180627
 11
0.199026
 21
-4.180626
  0
LINE
  8
Layer0$C$L0
 10
0.101025
 20
-4.168127
 11
6.102562E-02
 21
-4.168127
  0
LINE
  8
Layer0$C$L0
 10
0.239026
 20
-4.168127
 11
0.199026
 21
-4.168127
  0
LINE
  8
Layer0$C$L0
 10
0.101025
 20
-4.155627
 11
6.102562E-02
 21
-4.155627
  0
LINE
  8
Layer0$C$L0
 10
0.237377
 20
-4.155627
 11
0.198902
 21
-4.155627
  0
LINE
  8
Layer0$C$L0
 10
0.101025
 20
-4.143126
 11
6.102562E-02
 21
-4.143126
  0
LINE
  8
Layer0$C$L0
 10
0.232265
 20
-4.143126
 11
0.194968
 21
-4.143126
  0
LINE
  8
Layer0$C$L0
 10
0.101025
 20
-4.130627
 11
6.102562E-02
 21
-4.130627
  0
LINE
  8
Layer0$C$L0
 10
0.222014
 20
-4.130627
 11
0.180964
 21
-4.130627
  0
ENDBLK
  8
Layer0$C$L0
  0
ENDSEC
  0
SECTION
  2
ENTITIES
  0
POINT
  8
Layer0$C$L0
 10
8.529023
 20
-5.723126
  0
TEXT
  8
Layer10$C$L10
 10
6.186918
 20
-3.889653
 40
0.120000
  1
A70QS200-4
 72
     5
 11
7.354831
 21
-3.889653
  0
TEXT
  8
Layer10$C$L10
 10
6.186918
 20
-3.639653
 40
0.120000
  1
A70QS175-4
 72
     5
 11
7.354831
 21
-3.639653
  0
TEXT
  8
Layer10$C$L10
 10
5.768213
 20
-4.851390
 40
0.250000
  1
106083
 72
     5
 11
7.201364
 21
-4.851390
  0
TEXT
  8
Layer10$C$L10
 10
6.5924887353
 20
1.8035505489
 40
0.1560000032
  1
106083
 72
     5
 11
7.4867747495
 21
1.8035505489
  0
TEXT
  8
Layer10$C$L10
 10
2.815024
 20
-4.699792
 40
0.120000
  1
125-200A   700V
 72
     5
 11
4.583024
 21
-4.699792
  0
TEXT
  8
Layer10$C$L10
 10
5.046919
 20
-3.889652
 40
0.120000
  1
200A
 72
     5
 11
5.494831
 21
-3.889652
  0
TEXT
  8
Layer10$C$L10
 10
5.046919
 20
-3.639652
 40
0.120000
  1
175A
 72
     5
 11
5.494831
 21
-3.639652
  0
TEXT
  8
Layer10$C$L10
 10
5.046919
 20
-3.389652
 40
0.120000
  1
150A
 72
     5
 11
5.494831
 21
-3.389652
  0
TEXT
  8
Layer10$C$L10
 10
5.046919
 20
-3.139652
 40
0.120000
  1
125A
 72
     5
 11
5.494831
 21
-3.139652
  0
TEXT
  8
Layer10$C$L10
 10
6.186918
 20
-3.389653
 40
0.120000
  1
A70QS150-4
 72
     5
 11
7.354831
 21
-3.389653
  0
TEXT
  8
Layer10$C$L10
 10
6.186918
 20
-3.139653
 40
0.120000
  1
A70QS125-4
 72
     5
 11
7.354831
 21
-3.139653
  0
TEXT
  8
Layer10$C$L10
 10
2.815024
 20
-4.366459
 40
0.120000
  1
FORM 101 TYPE 4
 72
     5
 11
4.583024
 21
-4.366459
  0
LINE
  8
Layer0$C$L0
 10
4.806919
 20
-2.954650
 11
7.749023
 21
-2.954650
  0
LINE
  8
Layer0$C$L0
 10
4.806919
 20
-3.204650
 11
7.749023
 21
-3.204650
  0
TEXT
  8
Layer10$C$L10
 10
6.246918
 20
-2.889650
 40
0.120000
  1
CATALOG NO.
 72
     5
 11
7.534830
 21
-2.889650
  0
TEXT
  8
Layer10$C$L10
 10
4.926919
 20
-2.889651
 40
0.120000
  1
RATING
 72
     5
 11
5.614831
 21
-2.889651
  0
LINE
  8
Layer0$C$L0
 10
4.806919
 20
-3.704650
 11
7.749023
 21
-3.704650
  0
LINE
  8
Layer0$C$L0
 10
4.806919
 20
-3.454650
 11
7.749023
 21
-3.454650
  0
LINE
  8
Layer0$C$L0
 10
4.806919
 20
-2.704651
 11
7.749023
 21
-2.704651
  0
LINE
  8
Layer0$C$L0
 10
4.806919
 20
-2.704651
 11
4.806919
 21
-3.953125
  0
LINE
  8
Layer0$C$L0
 10
5.766918
 20
-2.704651
 11
5.766918
 21
-3.953125
  0
INSERT
  8
Layer0$C$L0
  2
*X0
 10
0.000000
 20
0.000000
  0
INSERT
  8
Layer0$C$L0
  2
*X1
 10
0.000000
 20
0.000000
  0
INSERT
  8
Layer0$C$L0
  2
*X2
 10
0.000000
 20
0.000000
  0
INSERT
  8
Layer0$C$L0
  2
*X3
 10
0.000000
 20
0.000000
  0
INSERT
  8
Layer0$C$L0
  2
*X4
 10
0.000000
 20
0.000000
  0
INSERT
  8
Layer0$C$L0
  2
*X5
 10
0.000000
 20
0.000000
  0
TEXT
  8
Layer10$C$L10
 10
0.309025
 20
-4.318127
 40
8.000000E-02
  1
NEWBURYPORT,MA 01950
 41
1.011842
 72
     5
 11
1.847025
 21
-4.318127
  0
TEXT
  8
Layer10$C$L10
 10
0.309025
 20
-4.198127
 40
8.000000E-02
  1
374 MERRIMAC STREET
 41
1.013889
 72
     5
 11
1.769025
 21
-4.198127
  0
LINE
  8
Layer0$C$L0
 10
6.313024
 20
1.706874
 11
6.313024
 21
2.026875
  0
TEXT
  8
Layer10$C$L10
 10
5.636025
 20
-4.292759
 40
8.000001E-02
  1
NOT TO BE USED FOR PRODUCTION
 41
0.834821
 72
     5
 11
7.506024
 21
-4.292759
  0
TEXT
  8
Layer10$C$L10
 10
5.993524
 20
-4.172759
 40
8.000001E-02
  1
OUTLINE DIMENSIONS
 41
0.849265
 72
     5
 11
7.148524
 21
-4.172759
  0
LINE
  8
Layer0$C$L0
 10
7.749023
 20
-4.973126
 11
7.749023
 21
2.026875
  0
LINE
  8
Layer0$C$L0
 10
-1.500976
 20
-4.973126
 11
7.749023
 21
-4.973126
  0
LINE
  8
Layer0$C$L0
 10
7.799024
 20
-5.023126
 11
7.799024
 21
2.076875
  0
LINE
  8
Layer0$C$L0
 10
-1.550976
 20
-5.023126
 11
7.799024
 21
-5.023126
  0
LINE
  8
Layer0$C$L0
 10
-1.550976
 20
-5.023126
 11
-1.550976
 21
2.076875
  0
LINE
  8
Layer0$C$L0
 10
-1.500976
 20
-4.973126
 11
-1.500976
 21
2.026875
  0
LINE
  8
Layer0$C$L0
 10
1.999023
 20
-4.973126
 11
1.999023
 21
-3.973125
  0
LINE
  8
Layer0$C$L0
 10
7.749023
 20
-3.973125
 11
-1.500976
 21
-3.973125
  0
LINE
  8
Layer0$C$L0
 10
7.749023
 20
-3.953125
 11
-1.500976
 21
-3.953125
  0
TEXT
  8
Layer10$C$L10
 10
-1.471101
 20
-4.933126
 40
8.000001E-02
  1
DATE:
 41
0.968750
 72
     5
 11
-1.161101
 21
-4.933126
  0
TEXT
  8
Layer10$C$L10
 10
0.333220
 20
-4.933126
 40
8.000001E-02
  1
DATE:
 41
0.968750
 72
     5
 11
0.643220
 21
-4.933126
  0
LINE
  8
Layer0$C$L0
 10
5.399025
 20
-4.452026
 11
7.749023
 21
-4.452026
  0
LINE
  8
Layer0$C$L0
 10
5.399025
 20
-4.973126
 11
5.399025
 21
-3.973125
  0
LINE
  8
Layer0$C$L0
 10
-0.717977
 20
-4.218127
 11
-0.632976
 21
-4.218127
  0
LINE
  8
Layer0$C$L0
 10
-0.717977
 20
-4.231127
 11
-0.692977
 21
-4.231127
  0
LINE
  8
Layer0$C$L0
 10
-0.717977
 20
-4.231127
 11
-0.717977
 21
-4.218127
  0
LINE
  8
Layer0$C$L0
 10
-0.196974
 20
-4.268127
 11
-0.196974
 21
-4.118127
  0
LINE
  8
Layer0$C$L0
 10
-0.374975
 20
-4.268127
 11
-0.374975
 21
-4.118127
  0
LINE
  8
Layer0$C$L0
 10
-0.236975
 20
-4.278127
 11
-0.236975
 21
-4.118127
  0
LINE
  8
Layer0$C$L0
 10
-0.334974
 20
-4.278127
 11
-0.334974
 21
-4.118127
  0
LINE
  8
Layer0$C$L0
 10
-0.324974
 20
-4.318127
 11
-0.246975
 21
-4.318127
  0
LINE
  8
Layer0$C$L0
 10
-0.304976
 20
-4.308127
 11
-0.266973
 21
-4.308127
  0
ARC
  8
Layer0$C$L0
 10
-0.324974
 20
-4.268127
 40
5.000000E-02
100
AcDbArc
 50
180.000005
 51
270.000001
  0
ARC
  8
Layer0$C$L0
 10
-0.246975
 20
-4.268127
 40
5.000000E-02
100
AcDbArc
 50
270.000001
 51
360.000010
  0
ARC
  8
Layer0$C$L0
 10
-0.304976
 20
-4.278127
 40
3.000000E-02
100
AcDbArc
 50
180.000005
 51
270.000001
  0
ARC
  8
Layer0$C$L0
 10
-0.266973
 20
-4.278127
 40
3.000000E-02
100
AcDbArc
 50
270.000001
 51
360.000010
  0
ARC
  8
Layer0$C$L0
 10
-0.740977
 20
-4.158127
 40
3.000000E-02
100
AcDbArc
 50
90.000003
 51
180.000005
  0
ARC
  8
Layer0$C$L0
 10
-0.702975
 20
-4.158127
 40
3.000000E-02
100
AcDbArc
 50
1.001791E-05
 51
89.999989
  0
ARC
  8
Layer0$C$L0
 10
-0.702975
 20
-4.278127
 40
3.000000E-02
100
AcDbArc
 50
270.000001
 51
360.000010
  0
ARC
  8
Layer0$C$L0
 10
-0.740977
 20
-4.278127
 40
3.000000E-02
100
AcDbArc
 50
180.000005
 51
270.000001
  0
ARC
  8
Layer0$C$L0
 10
-0.760976
 20
-4.168127
 40
5.000000E-02
100
AcDbArc
 50
90.000003
 51
180.000005
  0
ARC
  8
Layer0$C$L0
 10
-0.682977
 20
-4.168127
 40
5.000000E-02
100
AcDbArc
 50
0.000000
 51
90.000003
  0
ARC
  8
Layer0$C$L0
 10
-0.682977
 20
-4.268127
 40
5.000000E-02
100
AcDbArc
 50
270.000001
 51
360.000010
  0
ARC
  8
Layer0$C$L0
 10
-0.760976
 20
-4.268127
 40
5.000000E-02
100
AcDbArc
 50
180.000005
 51
270.000001
  0
LINE
  8
Layer0$C$L0
 10
-0.740977
 20
-4.128127
 11
-0.702975
 21
-4.128127
  0
LINE
  8
Layer0$C$L0
 10
-0.740977
 20
-4.308127
 11
-0.702975
 21
-4.308127
  0
LINE
  8
Layer0$C$L0
 10
-0.760976
 20
-4.118127
 11
-0.682977
 21
-4.118127
  0
LINE
  8
Layer0$C$L0
 10
-0.760976
 20
-4.318127
 11
-0.682977
 21
-4.318127
  0
LINE
  8
Layer0$C$L0
 10
-0.770976
 20
-4.278127
 11
-0.770976
 21
-4.158127
  0
LINE
  8
Layer0$C$L0
 10
-0.672976
 20
-4.193127
 11
-0.672976
 21
-4.158127
  0
LINE
  8
Layer0$C$L0
 10
-0.810977
 20
-4.268127
 11
-0.810977
 21
-4.168127
  0
LINE
  8
Layer0$C$L0
 10
-0.632976
 20
-4.193127
 11
-0.632976
 21
-4.168127
  0
LINE
  8
Layer0$C$L0
 10
-0.672976
 20
-4.193127
 11
-0.632976
 21
-4.193127
  0
LINE
  8
Layer0$C$L0
 10
-0.672976
 20
-4.278127
 11
-0.672976
 21
-4.251127
  0
LINE
  8
Layer0$C$L0
 10
-0.632976
 20
-4.268127
 11
-0.632976
 21
-4.218127
  0
ARC
  8
Layer0$C$L0
 10
-0.692977
 20
-4.251127
 40
2.000000E-02
100
AcDbArc
 50
0.000000
 51
90.000003
  0
ARC
  8
Layer0$C$L0
 10
-0.522976
 20
-4.158127
 40
3.000000E-02
100
AcDbArc
 50
90.000003
 51
180.000005
  0
ARC
  8
Layer0$C$L0
 10
-0.484974
 20
-4.158127
 40
3.000000E-02
100
AcDbArc
 50
1.001791E-05
 51
89.999989
  0
ARC
  8
Layer0$C$L0
 10
-0.484974
 20
-4.278127
 40
3.000000E-02
100
AcDbArc
 50
270.000001
 51
360.000010
  0
ARC
  8
Layer0$C$L0
 10
-0.522976
 20
-4.278127
 40
3.000000E-02
100
AcDbArc
 50
180.000005
 51
270.000001
  0
ARC
  8
Layer0$C$L0
 10
-0.542974
 20
-4.168127
 40
5.000000E-02
100
AcDbArc
 50
90.000003
 51
180.000005
  0
ARC
  8
Layer0$C$L0
 10
-0.464975
 20
-4.168127
 40
5.000000E-02
100
AcDbArc
 50
0.000000
 51
90.000003
  0
ARC
  8
Layer0$C$L0
 10
-0.464975
 20
-4.268127
 40
5.000000E-02
100
AcDbArc
 50
270.000001
 51
360.000010
  0
ARC
  8
Layer0$C$L0
 10
-0.542974
 20
-4.268127
 40
5.000000E-02
100
AcDbArc
 50
180.000005
 51
270.000001
  0
LINE
  8
Layer0$C$L0
 10
-0.522976
 20
-4.128127
 11
-0.484974
 21
-4.128127
  0
LINE
  8
Layer0$C$L0
 10
-0.522976
 20
-4.308127
 11
-0.484974
 21
-4.308127
  0
LINE
  8
Layer0$C$L0
 10
-0.542974
 20
-4.118127
 11
-0.464975
 21
-4.118127
  0
LINE
  8
Layer0$C$L0
 10
-0.542974
 20
-4.318127
 11
-0.464975
 21
-4.318127
  0
LINE
  8
Layer0$C$L0
 10
-0.552975
 20
-4.278127
 11
-0.552975
 21
-4.158127
  0
LINE
  8
Layer0$C$L0
 10
-0.454975
 20
-4.278127
 11
-0.454975
 21
-4.158127
  0
LINE
  8
Layer0$C$L0
 10
-0.592977
 20
-4.268127
 11
-0.592977
 21
-4.168127
  0
LINE
  8
Layer0$C$L0
 10
-0.414974
 20
-4.268127
 11
-0.414974
 21
-4.168127
  0
LINE
  8
Layer0$C$L0
 10
-0.116974
 20
-4.308127
 11
2.102661E-02
 21
-4.308127
  0
LINE
  8
Layer0$C$L0
 10
-0.156975
 20
-4.318127
 11
2.102661E-02
 21
-4.318127
  0
LINE
  8
Layer0$C$L0
 10
-0.116974
 20
-4.308127
 11
-0.116974
 21
-4.118127
  0
LINE
  8
Layer0$C$L0
 10
-0.156975
 20
-4.318127
 11
-0.156975
 21
-4.118127
  0
ARC
  8
Layer0$C$L0
 10
0.169025
 20
-4.158127
 40
3.000000E-02
100
AcDbArc
 50
1.001791E-05
 51
89.999989
  0
ARC
  8
Layer0$C$L0
 10
0.169025
 20
-4.278127
 40
3.000000E-02
100
AcDbArc
 50
270.000001
 51
360.000010
  0
ARC
  8
Layer0$C$L0
 10
0.189026
 20
-4.168127
 40
5.000000E-02
100
AcDbArc
 50
0.000000
 51
90.000003
  0
ARC
  8
Layer0$C$L0
 10
0.189026
 20
-4.268127
 40
5.000000E-02
100
AcDbArc
 50
270.000001
 51
360.000010
  0
LINE
  8
Layer0$C$L0
 10
0.101025
 20
-4.128127
 11
0.169025
 21
-4.128127
  0
LINE
  8
Layer0$C$L0
 10
0.101025
 20
-4.308127
 11
0.169025
 21
-4.308127
  0
LINE
  8
Layer0$C$L0
 10
6.102562E-02
 20
-4.118127
 11
0.189026
 21
-4.118127
  0
LINE
  8
Layer0$C$L0
 10
6.102562E-02
 20
-4.318127
 11
0.189026
 21
-4.318127
  0
LINE
  8
Layer0$C$L0
 10
0.101025
 20
-4.308127
 11
0.101025
 21
-4.128127
  0
LINE
  8
Layer0$C$L0
 10
0.199026
 20
-4.278127
 11
0.199026
 21
-4.158127
  0
LINE
  8
Layer0$C$L0
 10
6.102562E-02
 20
-4.318127
 11
6.102562E-02
 21
-4.118127
  0
LINE
  8
Layer0$C$L0
 10
0.239025
 20
-4.268127
 11
0.239025
 21
-4.168127
  0
LINE
  8
Layer0$C$L0
 10
-0.374975
 20
-4.118127
 11
-0.334974
 21
-4.118127
  0
LINE
  8
Layer0$C$L0
 10
-0.236975
 20
-4.118127
 11
-0.196974
 21
-4.118127
  0
LINE
  8
Layer0$C$L0
 10
-0.156975
 20
-4.118127
 11
-0.116974
 21
-4.118127
  0
LINE
  8
Layer0$C$L0
 10
2.102661E-02
 20
-4.308127
 11
2.102661E-02
 21
-4.318127
  0
LINE
  8
Layer0$C$L0
 10
-1.158477
 20
-4.018127
 11
-1.270976
 21
-4.018127
  0
LINE
  8
Layer0$C$L0
 10
-1.158477
 20
-4.118127
 11
-1.158477
 21
-4.018127
  0
LINE
  8
Layer0$C$L0
 10
-1.058476
 20
-4.118127
 11
-1.158477
 21
-4.118127
  0
LINE
  8
Layer0$C$L0
 10
-1.058476
 20
-4.218127
 11
-1.058476
 21
-4.118127
  0
LINE
  8
Layer0$C$L0
 10
-1.158477
 20
-4.218127
 11
-1.058476
 21
-4.218127
  0
LINE
  8
Layer0$C$L0
 10
-1.158477
 20
-4.318127
 11
-1.158477
 21
-4.218127
  0
LINE
  8
Layer0$C$L0
 10
-1.270976
 20
-4.318127
 11
-1.158477
 21
-4.318127
  0
LINE
  8
Layer0$C$L0
 10
-1.133477
 20
-4.168127
 11
-1.270976
 21
-4.318127
  0
LINE
  8
Layer0$C$L0
 10
-1.270976
 20
-4.018127
 11
-1.133477
 21
-4.168127
  0
LINE
  8
Layer0$C$L0
 10
-1.370976
 20
-4.218127
 11
-1.370976
 21
-4.118127
  0
LINE
  8
Layer0$C$L0
 10
-1.208476
 20
-4.218127
 11
-1.370976
 21
-4.218127
  0
LINE
  8
Layer0$C$L0
 10
-1.208476
 20
-4.118127
 11
-1.208476
 21
-4.218127
  0
LINE
  8
Layer0$C$L0
 10
-1.370976
 20
-4.118127
 11
-1.208476
 21
-4.118127
  0
LINE
  8
Layer0$C$L0
 10
-1.550976
 20
2.076875
 11
7.799024
 21
2.076875
  0
LINE
  8
Layer0$C$L0
 10
-1.500976
 20
2.026875
 11
7.749023
 21
2.026875
  0
LINE
  8
Layer0$C$L0
 10
6.313024
 20
1.706874
 11
7.749023
 21
1.706874
  0
TEXT
  8
Layer10$C$L10
 10
-1.471101
 20
-4.753127
 40
8.000001E-02
  1
SIGN:
 41
0.968750
 72
     5
 11
-1.161101
 21
-4.753127
  0
TEXT
  8
Layer10$C$L10
 10
0.333220
 20
-4.753126
 40
8.000001E-02
  1
SIGN:
 41
0.968750
 72
     5
 11
0.643220
 21
-4.753126
  0
LINE
  8
Layer0$C$L0
 10
0.249023
 20
-4.973126
 11
0.249023
 21
-4.393128
  0
LINE
  8
Layer0$C$L0
 10
1.999023
 20
-4.393128
 11
-1.500976
 21
-4.393128
  0
TEXT
  8
Layer10$C$L10
 10
-1.215280
 20
-4.513128
 40
8.000000E-02
  1
%%uPRODUCT MANAGER%%u
 72
     5
 11
-3.667145E-02
 21
-4.513128
  0
TEXT
  8
Layer10$C$L10
 10
0.534719
 20
-4.513128
 40
8.000000E-02
  1
%%uDESIGN ENGINEER%%u
 72
     5
 11
1.713328
 21
-4.513128
  0
TEXT
  8
Layer10$C$L10
 10
5.636025
 20
-4.292759
 40
8.000001E-02
  1
NOT TO BE USED FOR PRODUCTION
 41
0.834821
 72
     5
 11
7.506024
 21
-4.292759
  0
TEXT
  8
Layer10$C$L10
 10
5.993524
 20
-4.172759
 40
8.000001E-02
  1
OUTLINE DIMENSIONS
 41
0.849265
 72
     5
 11
7.148524
 21
-4.172759
  0
DIMENSION
  8
Layer10$C$L10
  2
*D0
 70
     1
  1
<>(31.0mm)
 10
6.343875
 20
-0.829336
 11
7.071581
 21
-0.919336
  3
DIM1
100
AcDbAlignedDimension
 13
5.124875
 23
0.000000
 14
6.343875
 24
0.000000
  0
DIMENSION
  8
Layer10$C$L10
  2
*D1
 70
     1
  1
<>(4.8mm)
 10
5.829375
 20
1.150916
 11
6.774097
 21
1.060916
  3
DIM1
100
AcDbAlignedDimension
 13
5.639375
 23
0.489364
 14
5.829375
 24
0.489364
  0
DIMENSION
  8
Layer10$C$L10
  2
*D2
 70
     1
  1
<>(25.3mm)
 10
4.431429
 20
-0.498500
 11
4.431429
 21
2.246637E-09
  3
DIM1
100
AcDbAlignedDimension
 13
3.625000
 23
0.498500
 14
3.625000
 24
-0.498500
  0
DIMENSION
  8
Layer10$C$L10
  2
*D3
 70
     1
  1
<>(111.1mm)
 10
3.625000
 20
-3.012691
 11
1.737500
 21
-3.102691
  3
DIM1
100
AcDbAlignedDimension
 13
-0.750000
 23
-0.498500
 14
3.625000
 24
-0.498500
  0
DIMENSION
  8
Layer10$C$L10
  2
*D4
 70
     1
  1
<>(93.6mm)
 10
3.281000
 20
-2.335682
 11
1.677500
 21
-2.425682
  3
DIM1
100
AcDbAlignedDimension
 13
-0.406000
 23
-5.000000E-02
 14
3.281000
 24
-5.000000E-02
  0
DIMENSION
  8
Layer10$C$L10
  2
*D5
 70
     1
  1
<>(90.5mm)
 10
3.219000
 20
-1.650210
 11
1.677500
 21
-1.740210
  3
DIM1
100
AcDbAlignedDimension
 13
-0.344000
 23
-5.000000E-02
 14
3.219000
 24
-5.000000E-02
  0
DIMENSION
  8
Layer10$C$L10
  2
*D6
 70
     1
  1
<>(73.0mm)
 10
2.875000
 20
-0.880112
 11
1.677500
 21
-0.970112
  3
DIM1
100
AcDbAlignedDimension
 13
0.000000
 23
-0.609500
 14
2.875000
 24
-0.609500
  0
DIMENSION
  8
Layer10$C$L10
  2
*D7
  1
<>(7.9mm)
 10
-0.999285
 20
-0.156000
 11
-0.999285
 21
0.982170
  3
DIM1
100
AcDbAlignedDimension
 13
-0.472401
 23
0.156000
 14
-0.504226
 24
-0.156000
 50
-90.000000
100
AcDbRotatedDimension
  0
LINE
  8
Layer10$C$L10
  6
CENTERLINE
 10
3.219000
 20
-5.000000E-02
 11
3.219000
 21
5.000000E-02
  0
LINE
  8
Layer10$C$L10
  6
CENTERLINE
 10
3.281000
 20
-5.000000E-02
 11
3.281000
 21
5.000000E-02
  0
LINE
  8
Layer10$C$L10
  6
CENTERLINE
 10
3.231000
 20
0.000000
 11
3.331000
 21
0.000000
  0
LINE
  8
Layer10$C$L10
  6
CENTERLINE
 10
3.169000
 20
0.000000
 11
3.269000
 21
0.000000
  0
LINE
  8
Layer10$C$L10
  6
CENTERLINE
 10
-0.394000
 20
0.000000
 11
-0.294000
 21
0.000000
  0
LINE
  8
Layer10$C$L10
  6
CENTERLINE
 10
-0.456000
 20
0.000000
 11
-0.356000
 21
0.000000
  0
LINE
  8
Layer10$C$L10
  6
CENTERLINE
 10
-0.344000
 20
-5.000000E-02
 11
-0.344000
 21
5.000000E-02
  0
LINE
  8
Layer10$C$L10
  6
CENTERLINE
 10
-0.406000
 20
-5.000000E-02
 11
-0.406000
 21
5.000000E-02
  0
LINE
  8
Layer0$C$L0
 10
5.8293749988
 20
-0.4893641178
 11
5.8293749988
 21
0.4893641178
  0
LINE
  8
Layer0$C$L0
 10
5.6393750012
 20
-0.4893641178
 11
5.6393750012
 21
0.4893641178
  0
CIRCLE
  5
3
100
AcDbEntity
  8
Layer0$C$L0
100
AcDbCircle
 10
5.7343750000
 20
0.0000000000
 40
0.6094999909
  0
LINE
  8
Layer0$C$L0
 10
3.2809999883
 20
0.1560000032
 11
3.2190000117
 21
0.1560000032
  0
LINE
  8
Layer0$C$L0
 10
3.2809999883
 20
-0.1560000032
 11
3.2190000117
 21
-0.1560000032
  0
ARC
  8
Layer0$C$L0
 10
3.2190000117
 20
0.0000000000
 40
0.1560000032
100
AcDbArc
 50
90.0000000000
 51
270.0000000000
  0
ARC
  8
Layer0$C$L0
 10
3.2809999883
 20
0.0000000000
 40
0.1560000032
100
AcDbArc
 50
270.0000000000
 51
450.0000000000
  0
LINE
  8
Layer0$C$L0
 10
3.6250000298
 20
0.4984999895
 11
2.8750000000
 21
0.4984999895
  0
LINE
  8
Layer0$C$L0
 10
3.6250000298
 20
-0.4984999895
 11
2.8750000000
 21
-0.4984999895
  0
LINE
  8
Layer0$C$L0
 10
3.6250000298
 20
-0.4984999895
 11
3.6250000298
 21
0.4984999895
  0
LINE
  8
Layer0$C$L0
 10
-0.7500000298
 20
-0.4984999895
 11
-0.7500000298
 21
0.4984999895
  0
LINE
  8
Layer0$C$L0
 10
-0.7500000298
 20
-0.4984999895
 11
0.0000000000
 21
-0.4984999895
  0
LINE
  8
Layer0$C$L0
 10
-0.7500000298
 20
0.4984999895
 11
0.0000000000
 21
0.4984999895
  0
ARC
  8
Layer0$C$L0
 10
-0.4059999883
 20
0.0000000000
 40
0.1560000032
100
AcDbArc
 50
90.0000000000
 51
270.0000000000
  0
ARC
  8
Layer0$C$L0
 10
-0.3440000117
 20
0.0000000000
 40
0.1560000032
100
AcDbArc
 50
270.0000000000
 51
450.0000000000
  0
LINE
  8
Layer0$C$L0
 10
-0.4059999883
 20
-0.1560000032
 11
-0.3440000117
 21
-0.1560000032
  0
LINE
  8
Layer0$C$L0
 10
-0.4059999883
 20
0.1560000032
 11
-0.3440000117
 21
0.1560000032
  0
LINE
  8
Layer0$C$L0
 10
2.8750000000
 20
-0.6094999909
 11
2.8750000000
 21
0.6094999909
  0
LINE
  8
Layer0$C$L0
 10
0.0000000000
 20
-0.6094999909
 11
0.0000000000
 21
0.6094999909
  0
LINE
  8
Layer0$C$L0
 10
0.000000
 20
0.609500
 11
2.875000
 21
0.609500
  0
LINE
  8
Layer0$C$L0
 10
2.875000
 20
-0.609500
 11
0.000000
 21
-0.609500
  0
ARC
  8
Layer0$C$L0
 10
5.734375
 20
0.000000
 40
0.498500
100
AcDbArc
 50
79.013848
 51
100.986150
  0
ARC
  8
Layer0$C$L0
 10
5.734375
 20
0.000000
 40
0.498500
100
AcDbArc
 50
259.013860
 51
280.986141
  0
ENDSEC
  0
EOF
