  0
SECTION
  2
HEADER
  9
$ACADVER
  1
AC1015
  9
$ACADMAINTVER
 70
    20
  9
$DWGCODEPAGE
  3
ANSI_1252
  9
$INSBASE
 10
0.0
 20
0.0
 30
0.0
  9
$EXTMIN
 10
-138.0442302735992
 20
-50.95180437598447
 30
-0.0000000000000144
  9
$EXTMAX
 10
603.5478370546662
 20
495.8923877289435
 30
0.0000000000000009
  9
$LIMMIN
 10
614.9567812098235
 20
472.9232618216817
  9
$LIMMAX
 10
1454.956781209823
 20
1066.923261821681
  9
$ORTHOMODE
 70
     0
  9
$REGENMODE
 70
     1
  9
$FILLMODE
 70
     1
  9
$QTEXTMODE
 70
     0
  9
$MIRRTEXT
 70
     1
  9
$LTSCALE
 40
2.0
  9
$ATTMODE
 70
     1
  9
$TEXTSIZE
 40
2.5
  9
$TRACEWID
 40
1.0
  9
$TEXTSTYLE
  7
STANDARD
  9
$CLAYER
  8
0
  9
$CELTYPE
  6
ByLayer
  9
$CECOLOR
 62
   256
  9
$CELTSCALE
 40
1.0
  9
$DISPSILH
 70
     0
  9
$DIMSCALE
 40
1.0
  9
$DIMASZ
 40
2.5
  9
$DIMEXO
 40
1.0
  9
$DIMDLI
 40
10.0
  9
$DIMRND
 40
0.0
  9
$DIMDLE
 40
0.0
  9
$DIMEXE
 40
1.0
  9
$DIMTP
 40
0.1
  9
$DIMTM
 40
0.1
  9
$DIMTXT
 40
3.5
  9
$DIMCEN
 40
0.0
  9
$DIMTSZ
 40
0.0
  9
$DIMTOL
 70
     0
  9
$DIMLIM
 70
     0
  9
$DIMTIH
 70
     0
  9
$DIMTOH
 70
     0
  9
$DIMSE1
 70
     0
  9
$DIMSE2
 70
     0
  9
$DIMTAD
 70
     1
  9
$DIMZIN
 70
     8
  9
$DIMBLK
  1

  9
$DIMASO
 70
     1
  9
$DIMSHO
 70
     1
  9
$DIMPOST
  1

  9
$DIMAPOST
  1
"
  9
$DIMALT
 70
     0
  9
$DIMALTD
 70
     2
  9
$DIMALTF
 40
0.0393701
  9
$DIMLFAC
 40
1.0
  9
$DIMTOFL
 70
     1
  9
$DIMTVP
 40
0.0
  9
$DIMTIX
 70
     0
  9
$DIMSOXD
 70
     0
  9
$DIMSAH
 70
     0
  9
$DIMBLK1
  1

  9
$DIMBLK2
  1

  9
$DIMSTYLE
  2
AM_ISO
  9
$DIMCLRD
 70
   256
  9
$DIMCLRE
 70
   256
  9
$DIMCLRT
 70
     2
  9
$DIMTFAC
 40
0.71
  9
$DIMGAP
 40
1.5
  9
$DIMJUST
 70
     0
  9
$DIMSD1
 70
     0
  9
$DIMSD2
 70
     0
  9
$DIMTOLJ
 70
     0
  9
$DIMTZIN
 70
     8
  9
$DIMALTZ
 70
     0
  9
$DIMALTTZ
 70
     0
  9
$DIMUPT
 70
     0
  9
$DIMDEC
 70
     1
  9
$DIMTDEC
 70
     3
  9
$DIMALTU
 70
     2
  9
$DIMALTTD
 70
     4
  9
$DIMTXSTY
  7
STANDARD
  9
$DIMAUNIT
 70
     0
  9
$DIMADEC
 70
     0
  9
$DIMALTRND
 40
0.0
  9
$DIMAZIN
 70
     2
  9
$DIMDSEP
 70
    46
  9
$DIMATFIT
 70
     3
  9
$DIMFRAC
 70
     0
  9
$DIMLDRBLK
  1

  9
$DIMLUNIT
 70
     2
  9
$DIMLWD
 70
    -1
  9
$DIMLWE
 70
    -1
  9
$DIMTMOVE
 70
     0
  9
$LUNITS
 70
     2
  9
$LUPREC
 70
     2
  9
$SKETCHINC
 40
1.0
  9
$FILLETRAD
 40
5.0
  9
$AUNITS
 70
     0
  9
$AUPREC
 70
     0
  9
$MENU
  1
.
  9
$ELEVATION
 40
0.0
  9
$PELEVATION
 40
0.0
  9
$THICKNESS
 40
0.0
  9
$LIMCHECK
 70
     0
  9
$CHAMFERA
 40
5.0
  9
$CHAMFERB
 40
5.0
  9
$CHAMFERC
 40
20.0
  9
$CHAMFERD
 40
0.0
  9
$SKPOLY
 70
     0
  9
$TDCREATE
 40
2452660.400300382
  9
$TDUCREATE
 40
2452660.358633715
  9
$TDUPDATE
 40
2453360.613131516
  9
$TDUUPDATE
 40
2453360.571464850
  9
$TDINDWG
 40
0.2776944097
  9
$TDUSRTIMER
 40
0.2776906134
  9
$USRTIMER
 70
     1
  9
$ANGBASE
 50
0.0
  9
$ANGDIR
 70
     0
  9
$PDMODE
 70
     0
  9
$PDSIZE
 40
0.0
  9
$PLINEWID
 40
0.0
  9
$SPLFRAME
 70
     0
  9
$SPLINETYPE
 70
     6
  9
$SPLINESEGS
 70
     8
  9
$HANDSEED
  5
18CF
  9
$SURFTAB1
 70
     6
  9
$SURFTAB2
 70
     6
  9
$SURFTYPE
 70
     6
  9
$SURFU
 70
     6
  9
$SURFV
 70
     6
  9
$UCSBASE
  2

  9
$UCSNAME
  2

  9
$UCSORG
 10
0.0
 20
0.0
 30
0.0
  9
$UCSXDIR
 10
1.0
 20
0.0
 30
0.0
  9
$UCSYDIR
 10
0.0
 20
1.0
 30
0.0
  9
$UCSORTHOREF
  2

  9
$UCSORTHOVIEW
 70
     0
  9
$UCSORGTOP
 10
0.0
 20
0.0
 30
0.0
  9
$UCSORGBOTTOM
 10
0.0
 20
0.0
 30
0.0
  9
$UCSORGLEFT
 10
0.0
 20
0.0
 30
0.0
  9
$UCSORGRIGHT
 10
0.0
 20
0.0
 30
0.0
  9
$UCSORGFRONT
 10
0.0
 20
0.0
 30
0.0
  9
$UCSORGBACK
 10
0.0
 20
0.0
 30
0.0
  9
$PUCSBASE
  2

  9
$PUCSNAME
  2

  9
$PUCSORG
 10
0.0
 20
0.0
 30
0.0
  9
$PUCSXDIR
 10
1.0
 20
0.0
 30
0.0
  9
$PUCSYDIR
 10
0.0
 20
1.0
 30
0.0
  9
$PUCSORTHOREF
  2

  9
$PUCSORTHOVIEW
 70
     0
  9
$PUCSORGTOP
 10
0.0
 20
0.0
 30
0.0
  9
$PUCSORGBOTTOM
 10
0.0
 20
0.0
 30
0.0
  9
$PUCSORGLEFT
 10
0.0
 20
0.0
 30
0.0
  9
$PUCSORGRIGHT
 10
0.0
 20
0.0
 30
0.0
  9
$PUCSORGFRONT
 10
0.0
 20
0.0
 30
0.0
  9
$PUCSORGBACK
 10
0.0
 20
0.0
 30
0.0
  9
$USERI1
 70
     0
  9
$USERI2
 70
     0
  9
$USERI3
 70
     0
  9
$USERI4
 70
     0
  9
$USERI5
 70
     0
  9
$USERR1
 40
0.0
  9
$USERR2
 40
0.0
  9
$USERR3
 40
0.0
  9
$USERR4
 40
0.0
  9
$USERR5
 40
0.0
  9
$WORLDVIEW
 70
     1
  9
$SHADEDGE
 70
     3
  9
$SHADEDIF
 70
    70
  9
$TILEMODE
 70
     1
  9
$MAXACTVP
 70
    48
  9
$PINSBASE
 10
0.0
 20
0.0
 30
0.0
  9
$PLIMCHECK
 70
     0
  9
$PEXTMIN
 10
1.000000000000000E+20
 20
1.000000000000000E+20
 30
1.000000000000000E+20
  9
$PEXTMAX
 10
-1.000000000000000E+20
 20
-1.000000000000000E+20
 30
-1.000000000000000E+20
  9
$PLIMMIN
 10
0.0
 20
0.0
  9
$PLIMMAX
 10
420.0
 20
297.0
  9
$UNITMODE
 70
     0
  9
$VISRETAIN
 70
     1
  9
$PLINEGEN
 70
     0
  9
$PSLTSCALE
 70
     1
  9
$TREEDEPTH
 70
  3020
  9
$CMLSTYLE
  2
Standard
  9
$CMLJUST
 70
     0
  9
$CMLSCALE
 40
20.0
  9
$PROXYGRAPHICS
 70
     1
  9
$MEASUREMENT
 70
     1
  9
$CELWEIGHT
370
    -1
  9
$ENDCAPS
280
     0
  9
$JOINSTYLE
280
     0
  9
$LWDISPLAY
290
     0
  9
$INSUNITS
 70
     4
  9
$HYPERLINKBASE
  1

  9
$STYLESHEET
  1

  9
$XEDIT
290
     1
  9
$CEPSNTYPE
380
     0
  9
$PSTYLEMODE
290
     1
  9
$FINGERPRINTGUID
  2
{E0CBCC6A-2C49-11D7-83EC-00508B4B461A}
  9
$VERSIONGUID
  2
{A4AD6E44-9603-4903-A73B-113344BB2656}
  9
$EXTNAMES
290
     1
  9
$PSVPSCALE
 40
0.0
  9
$OLESTARTUP
290
     0
  0
ENDSEC
  0
SECTION
  2
CLASSES
  0
CLASS
  1
ACDBDICTIONARYWDFLT
  2
AcDbDictionaryWithDefault
  3
ObjectDBX Classes
 90
        0
280
     0
281
     0
  0
CLASS
  1
ACDBPLACEHOLDER
  2
AcDbPlaceHolder
  3
ObjectDBX Classes
 90
        0
280
     0
281
     0
  0
CLASS
  1
LAYOUT
  2
AcDbLayout
  3
ObjectDBX Classes
 90
        0
280
     0
281
     0
  0
CLASS
  1
ACME_DOCUMENT
  2
AcMeDbDoc
  3
AcMeServices
 90
        0
280
     0
281
     0
  0
CLASS
  1
ACMESCOPE
  2
AcMeScope
  3
AcMeServices
 90
        0
280
     0
281
     0
  0
CLASS
  1
ACMECOMMANDHISTORY
  2
AcMeCommandHistory
  3
AcMeServices
 90
        0
280
     0
281
     0
  0
CLASS
  1
ACIMSYSVARMAN
  2
AcImSysVarManager
  3
AcMeServices
 90
        0
280
     0
281
     0
  0
CLASS
  1
ACIMREALSYSVAR
  2
AcImRealSysVar
  3
AcMeServices
 90
        0
280
     0
281
     0
  0
CLASS
  1
ACIMINTSYSVAR
  2
AcImIntSysVar
  3
AcMeServices
 90
        0
280
     0
281
     0
  0
CLASS
  1
ACMEDRAWINGMAN
  2
AcMeDrawingMan
  3
AcMeServices
 90
        0
280
     0
281
     0
  0
CLASS
  1
ACMEVIEW
  2
AcMeView
  3
AcMeServices
 90
        0
280
     0
281
     0
  0
CLASS
  1
ACDBENTITYCACHE
  2
AcMeEntityCache
  3
AcMeServices
 90
        0
280
     0
281
     0
  0
CLASS
  1
GSMANAGER
  2
AcMeGSManager
  3
AcMeServices
 90
        0
280
     0
281
     0
  0
CLASS
  1
AMDTINTERNALREACTOR
  2
AmdtInternalReactor
  3
AcMeServices
 90
        0
280
     0
281
     0
  0
CLASS
  1
ACMESTATEMGR
  2
AcMeStateMgr
  3
AcMeServices
 90
        0
280
     0
281
     0
  0
CLASS
  1
ACGREFMASTER
  2
AcGrefMaster
  3
AcAttribServices
 90
        0
280
     0
281
     0
  0
CLASS
  1
ACME_DATABASE
  2
AcMeDbDatabase
  3
AcMeServices
 90
        0
280
     0
281
     0
  0
CLASS
  1
ACRFINSADJUSTERMGR
  2
AcRfInsAdjusterMgr
  3
AcMeServices
 90
        0
280
     0
281
     0
  0
CLASS
  1
ACGREFACADMASTER
  2
AcGrefacadMaster
  3
AcGrefServices
 90
        0
280
     0
281
     0
  0
CLASS
  1
AMIMASTER
  2
AmiMaster
  3
AmiServices
 90
        0
280
     0
281
     0
  0
CLASS
  1
AMGSETTINGSOBJ
  2
AmgSettingsObj
  3
"AcadM|Product Description: AutoCAD Mechanical 2000|Company: Autodesk"
 90
        0
280
     0
281
     0
  0
CLASS
  1
ACMDATADICTIONARY
  2
AcmDataDictionary
  3
"AcmSymBB|Product Description: AutoCAD Mechanical 2004|Company: Autodesk"
 90
        0
280
     0
281
     0
  0
CLASS
  1
ACMDATAENTRYBLOCK
  2
AcmDataEntryBlock
  3
"AcmSymBB|Product Description: AutoCAD Mechanical 2004|Company: Autodesk"
 90
    32768
280
     0
281
     0
  0
CLASS
  1
ACIMSTRSYSVAR
  2
AcImStrSysVar
  3
AcMeServices
 90
        0
280
     0
281
     0
  0
CLASS
  1
ACMSTANDARDISO
  2
AcmStandardISO
  3
"Amdt_StdImp|Product Description: AutoCAD Mechanical 2004|Company: Autodesk"
 90
        0
280
     0
281
     0
  0
CLASS
  1
AMGOBJPROPCFG
  2
AmgObjPropCfg
  3
"AmgLay|Product Description: AutoCAD Mechanical 2000|Company: Autodesk"
 90
        1
280
     0
281
     0
  0
CLASS
  1
AMDTEDGESTANDARDISO
  2
AmdtEdgeStdISO
  3
"Amdt_StdImp|Product Description: AutoCAD Mechanical 2004|Company: Autodesk"
 90
        0
280
     0
281
     0
  0
CLASS
  1
ACMSURFSTANDARDISO
  2
AcmSurfTextStdISO
  3
"Amdt_StdImp|Product Description: AutoCAD Mechanical 2004|Company: Autodesk"
 90
        0
280
     0
281
     0
  0
CLASS
  1
ACMFCFSTANDARDISO
  2
AcmFCFStdISO
  3
"Amdt_StdImp|Product Description: AutoCAD Mechanical 2004|Company: Autodesk"
 90
        0
280
     0
281
     0
  0
CLASS
  1
ACMWELDSTANDARDISO
  2
AcmWeldingStdISO
  3
"Amdt_StdImp|Product Description: AutoCAD Mechanical 2004|Company: Autodesk"
 90
        0
280
     0
281
     0
  0
CLASS
  1
ACMIDSTANDARDISO
  2
AcmIdStdISO
  3
"Amdt_StdImp|Product Description: AutoCAD Mechanical 2004|Company: Autodesk"
 90
        0
280
     0
281
     0
  0
CLASS
  1
ACMDATUMSTANDARDISO
  2
AcmDatumStdISO
  3
"Amdt_StdImp|Product Description: AutoCAD Mechanical 2004|Company: Autodesk"
 90
        0
280
     0
281
     0
  0
CLASS
  1
ACMBOMSTANDARDISO
  2
AcmBOMStdISO
  3
"Amdt_StdImp|Product Description: AutoCAD Mechanical 2004|Company: Autodesk"
 90
        0
280
     0
281
     0
  0
CLASS
  1
ACMDETAILSTANDARDISO
  2
AmdtDetailSymStdISO
  3
"Amdt_StdImp|Product Description: AutoCAD Mechanical 2004|Company: Autodesk"
 90
        0
280
     0
281
     0
  0
CLASS
  1
ACMSECTIONSTANDARDISO
  2
AmdtSectionSymStdISO
  3
"Amdt_StdImp|Product Description: AutoCAD Mechanical 2004|Company: Autodesk"
 90
        0
280
     0
281
     0
  0
CLASS
  1
ACMCENTERLINESTANDARDISO
  2
AmdtCenterLineStdISO
  3
"Amdt_StdImp|Product Description: AutoCAD Mechanical 2004|Company: Autodesk"
 90
        0
280
     0
281
     0
  0
CLASS
  1
ACMNOTESTANDARDISO
  2
AmdtNoteStdISO
  3
"Amdt_StdImp|Product Description: AutoCAD Mechanical 2004|Company: Autodesk"
 90
        0
280
     0
281
     0
  0
CLASS
  1
ACAMGLAYSTD
  2
AcAmgLayStd
  3
"AcAmgLayStd|Product Description: AutoCAD Mechanical 2000|Company: Autodesk"
 90
        0
280
     0
281
     0
  0
CLASS
  1
ACAMGDIMSTD
  2
AcAmgDimStd
  3
"AcAmgDimStd|Product Description: AutoCAD Mechanical 2000|Company: Autodesk"
 90
        0
280
     0
281
     0
  0
CLASS
  1
ACAMGHOLECHARTSTDISO
  2
AcAmgHoleChartStdISO
  3
ACMSYMBB_MODULE_NAME
 90
        0
280
     0
281
     0
  0
CLASS
  1
ACAMGTITLESTD
  2
AcAmgTitleStd
  3
"TITLEAPP"
 90
        0
280
     0
281
     0
  0
CLASS
  1
ACAMGFILTERDAT
  2
AcAmgFilterDat
  3
"AcadM|Product Description: AutoCAD Mechanical 2000|Company: Autodesk"
 90
    32768
280
     0
281
     0
  0
CLASS
  1
LAYER_INDEX
  2
AcDbLayerIndex
  3
ObjectDBX Classes
 90
        0
280
     0
281
     0
  0
CLASS
  1
IDBUFFER
  2
AcDbIdBuffer
  3
ObjectDBX Classes
 90
        0
280
     0
281
     0
  0
CLASS
  1
DICTIONARYVAR
  2
AcDbDictionaryVar
  3
ObjectDBX Classes
 90
        0
280
     0
281
     0
  0
CLASS
  1
AMDTFORMULAUPDATEDISPATCHER
  2
AmdtFormulaUpdateDispatcher
  3
AcMeServices
 90
    32768
280
     0
281
     0
  0
CLASS
  1
DIMASSOC
  2
AcDbDimAssoc
  3
"AcDbDimAssoc|Product Desc:     AcDim ARX App For Dimension|Company:          Autodesk, Inc.|WEB Address:      www.autodesk.com"
 90
    32768
280
     0
281
     0
  0
CLASS
  1
AM_DRAWING_MGR
  2
AcDmDwgMgr
  3
AcMechDwgViewMgmt
 90
        0
280
     0
281
     0
  0
CLASS
  1
AM_DWG_DOCUMENT
  2
AcDmDwgDocument
  3
AcMechDwgViewMgmt
 90
        0
280
     0
281
     0
  0
CLASS
  1
AM_DWG_SHEET
  2
AcDmSheet
  3
AcMechDwgViewMgmt
 90
        0
280
     0
281
     0
  0
CLASS
  1
AM_VIEWDIMPARMAP
  2
AcDmViewDimParMap
  3
AcMechDwgViewMgmt
 90
        0
280
     0
281
     0
  0
CLASS
  1
AM_DWGMGR_NAME
  2
AcDmDwgMgrName
  3
AcMechDwgViewMgmt
 90
        0
280
     0
281
     0
  0
CLASS
  1
AMDTMENUSTATEMGR
  2
AmdtMenuStateMgr
  3
McadcomServices
 90
        0
280
     0
281
     0
  0
CLASS
  1
AMDTMCOMMENUSTATE
  2
AmdtMcomMenuState
  3
McadcomServices
 90
        0
280
     0
281
     0
  0
CLASS
  1
MAPIAMMOUDLE
  2
MApiAmModule
  3
MApiAmServices
 90
        0
280
     0
281
     0
  0
CLASS
  1
AMDTADMENUSTATE
  2
AmdtAdMenuState
  3
DesignerServices
 90
        0
280
     0
281
     0
  0
CLASS
  1
ADAPPL
  2
AcAdAppl
  3
DesignerServices
 90
        0
280
     0
281
     0
  0
CLASS
  1
DEPMGR
  2
AcAdDepMgr
  3
DesignerServices
 90
        0
280
     0
281
     0
  0
CLASS
  1
PARAMMGR
  2
AcAdParamMgr
  3
DesignerServices
 90
        0
280
     0
281
     0
  0
CLASS
  1
PARAMSCOPE
  2
AcAdParamScope
  3
DesignerServices
 90
        0
280
     0
281
     0
  0
CLASS
  1
NAMEDAPPL
  2
AcAdNamedAppl
  3
DesignerServices
 90
        0
280
     0
281
     0
  0
CLASS
  1
AMDTDMMENUSTATE
  2
AmdtDmMenuState
  3
AcMechDwgViewMgmt
 90
        0
280
     0
281
     0
  0
CLASS
  1
AMDTAMMENUSTATE
  2
AmdtAmMenuState
  3
DesignerAssemblies
 90
        0
280
     0
281
     0
  0
CLASS
  1
ACAMPROJECT
  2
AcAmProject
  3
DesignerAssemblies
 90
        0
280
     0
281
     0
  0
CLASS
  1
ACAMGRCOMPDEF
  2
AcAmGrCompDef
  3
DesignerAssemblies
 90
        0
280
     0
281
     0
  0
CLASS
  1
ACCMCONTEXT
  2
AcCmContext
  3
DesignerAssemblies
 90
        0
280
     0
281
     0
  0
CLASS
  1
ACAMCOMPDEF
  2
AcAmCompDef
  3
DesignerAssemblies
 90
        0
280
     0
281
     0
  0
CLASS
  1
ACAMCOMPDEFMGR
  2
AcAmCompDefMgr
  3
DesignerAssemblies
 90
        0
280
     0
281
     0
  0
CLASS
  1
AMCONTEXTMGR
  2
AcAmContextMgr
  3
DesignerAssemblies
 90
        0
280
     0
281
     0
  0
CLASS
  1
ACAMCONTEXTMODELER
  2
AcAmContextModeler
  3
DesignerAssemblies
 90
        0
280
     0
281
     0
  0
CLASS
  1
CATALOGSTATE
  2
AcAmCatalogState
  3
DesignerAssemblies
 90
        0
280
     0
281
     0
  0
CLASS
  1
ACAMGRCOMPDEFSET
  2
AcAmGrCompDefSet
  3
DesignerAssemblies
 90
        0
280
     0
281
     0
  0
CLASS
  1
AMDTBROWSERDBTAB
  2
AmdtBrowserDbTab
  3
McadcomServices
 90
        0
280
     0
281
     0
  0
CLASS
  1
CBROWSERAPPOBJECT
  2
CBrowserAppObject
  3
McadcomServices
 90
        0
280
     0
281
     0
  0
CLASS
  1
DM_PLACEHOLDER
  2
AcDmSelsetPlaceholder
  3
AcMechDwgViewMgmt
 90
        0
280
     0
281
     0
  0
CLASS
  1
ACMTHREADLINESTANDARDISO
  2
AmdtThreadLineStdISO
  3
"Amdt_StdImp|Product Description: AutoCAD Mechanical 2004|Company: Autodesk"
 90
        0
280
     0
281
     0
  0
CLASS
  1
AMDTNOTETEMPLATEDB
  2
AmdtNoteTemplateDB
  3
AMDT_STDIMP_MODULE_NAME
 90
        0
280
     0
281
     0
  0
CLASS
  1
AMLOADER
  2
AMLoader
  3
AMAcad
 90
        0
280
     0
281
     0
  0
ENDSEC
  0
SECTION
  2
TABLES
  0
TABLE
  2
VPORT
  5
8
330
0
100
AcDbSymbolTable
 70
     3
  0
VPORT
  5
18C4
330
8
100
AcDbSymbolTableRecord
100
AcDbViewportTableRecord
  2
*Active
 70
     0
 10
0.0
 20
0.0
 11
1.0
 21
1.0
 12
232.7518033905335
 22
222.4702916764795
 13
0.0
 23
0.0
 14
5.0
 24
5.0
 15
20.0
 25
20.0
 16
0.0
 26
0.0
 36
1.0
 17
0.0
 27
0.0
 37
0.0
 40
551.0079803696863
 41
1.532401524777636
 42
50.0
 43
0.0
 44
0.0
 50
0.0
 51
0.0
 71
    16
 72
   100
 73
     1
 74
     3
 75
     0
 76
     0
 77
     0
 78
     0
281
     0
 65
     1
110
0.0
120
0.0
130
0.0
111
1.0
121
0.0
131
0.0
112
0.0
122
1.0
132
0.0
 79
     0
146
0.0
  0
ENDTAB
  0
TABLE
  2
LTYPE
  5
5
330
0
100
AcDbSymbolTable
 70
    15
  0
LTYPE
  5
14
330
5
100
AcDbSymbolTableRecord
100
AcDbLinetypeTableRecord
  2
ByBlock
 70
     0
  3

 72
    65
 73
     0
 40
0.0
  0
LTYPE
  5
15
330
5
100
AcDbSymbolTableRecord
100
AcDbLinetypeTableRecord
  2
ByLayer
 70
     0
  3

 72
    65
 73
     0
 40
0.0
  0
LTYPE
  5
16
330
5
100
AcDbSymbolTableRecord
100
AcDbLinetypeTableRecord
  2
Continuous
 70
     0
  3
Solid line
 72
    65
 73
     0
 40
0.0
  0
LTYPE
  5
4D
330
5
100
AcDbSymbolTableRecord
100
AcDbLinetypeTableRecord
  2
AM_ISO02W050
 70
     0
  3
__ __ __ __ __ __ __ __ __ __ __ __ __ __ __
 72
    65
 73
     2
 40
7.5
 49
6.0
 74
     0
 49
-1.5
 74
     0
  0
LTYPE
  5
4E
330
5
100
AcDbSymbolTableRecord
100
AcDbLinetypeTableRecord
  2
AM_ISO08W050
 70
     0
  3
____ . ____ . ____ . ____ . ____ . ____ . ____
 72
    65
 73
     4
 40
18.0
 49
12.0
 74
     0
 49
-1.5
 74
     0
 49
3.0
 74
     0
 49
-1.5
 74
     0
  0
LTYPE
  5
4F
330
5
100
AcDbSymbolTableRecord
100
AcDbLinetypeTableRecord
  2
AM_ISO09W050
 70
     0
  3
_____ . . _____ . . _____ . . ____ .. ____
 72
    65
 73
     6
 40
22.5
 49
12.0
 74
     0
 49
-1.5
 74
     0
 49
3.0
 74
     0
 49
-1.5
 74
     0
 49
3.0
 74
     0
 49
-1.5
 74
     0
  0
LTYPE
  5
50
330
5
100
AcDbSymbolTableRecord
100
AcDbLinetypeTableRecord
  2
Amconstr
 70
     0
  3
_______________________
 72
    65
 73
     2
 40
9999.0
 49
9999.0
 74
     0
 49
0.0
 74
     0
  0
LTYPE
  5
51
330
5
100
AcDbSymbolTableRecord
100
AcDbLinetypeTableRecord
  2
AM_ISO08W050x2
 70
     0
  3
__ . __ . __ . __ . __ . __
 72
    65
 73
     4
 40
9.0
 49
6.0
 74
     0
 49
-0.75
 74
     0
 49
1.5
 74
     0
 49
-0.75
 74
     0
  0
LTYPE
  5
52
330
5
100
AcDbSymbolTableRecord
100
AcDbLinetypeTableRecord
  2
AM_ISO02W050x2
 70
     0
  3
 _ _ _ _ _ _ _ _ _ _ _ _
 72
    65
 73
     2
 40
3.75
 49
3.0
 74
     0
 49
-0.75
 74
     0
  0
LTYPE
  5
55
330
5
100
AcDbSymbolTableRecord
100
AcDbLinetypeTableRecord
  2
Amzigzag
 70
     0
  3
/\/-/\/-/\/-/\/-/\/-/\/
 72
    65
 73
     2
 40
11.0001
 49
0.0001
 74
     4
 75
   135
340
54
 46
0.04
 50
0.0
 44
0.0
 45
0.0
 49
-11.0
 74
     0
  0
LTYPE
  5
63
330
5
100
AcDbSymbolTableRecord
100
AcDbLinetypeTableRecord
  2
ACISOWELD
 70
     0
  3
_ _ _ _ _
 72
    65
 73
     2
 40
2.0
 49
2.0
 74
     0
 49
-1.0
 74
     0
  0
LTYPE
  5
64
330
5
100
AcDbSymbolTableRecord
100
AcDbLinetypeTableRecord
  2
ACISOTGB
 70
     0
  3
__ . . __ . .
 72
    65
 73
     6
 40
9.0
 49
4.0
 74
     0
 49
-1.0
 74
     0
 49
1.0
 74
     0
 49
-1.0
 74
     0
 49
1.0
 74
     0
 49
-1.0
 74
     0
  0
LTYPE
  5
65
330
5
100
AcDbSymbolTableRecord
100
AcDbLinetypeTableRecord
  2
ACISOTGL
 70
     0
  3
_ _ _ _ _
 72
    65
 73
     2
 40
3.0
 49
2.0
 74
     0
 49
-1.0
 74
     0
  0
LTYPE
  5
67
330
5
100
AcDbSymbolTableRecord
100
AcDbLinetypeTableRecord
  2
CENTER
 70
     0
  3
Centre ____ _ ____ _ ____ _ ____ _ ____ _ ____
 72
    65
 73
     4
 40
50.8
 49
31.75
 74
     0
 49
-6.349999999999999
 74
     0
 49
6.349999999999999
 74
     0
 49
-6.349999999999999
 74
     0
  0
LTYPE
  5
B9
330
5
100
AcDbSymbolTableRecord
100
AcDbLinetypeTableRecord
  2
GEN7
 70
     0
  3
____ . ____ . ____ . ____ . ____ . ____ . ____
 72
    65
 73
     4
 40
15.0
 49
10.0
 74
     0
 49
-2.5
 74
     0
 49
0.0
 74
     0
 49
-2.5
 74
     0
  0
LTYPE
  5
1854
330
5
100
AcDbSymbolTableRecord
100
AcDbLinetypeTableRecord
  2
HIDDEN
 70
     0
  3
Caché __ __ __ __ __ __ __ __ __ __ __ __ __ __
 72
    65
 73
     2
 40
9.525
 49
6.349999999999999
 74
     0
 49
-3.174999999999999
 74
     0
  0
LTYPE
  5
1855
330
5
100
AcDbSymbolTableRecord
100
AcDbLinetypeTableRecord
  2
PHANTOM2
 70
     0
  3
Fantôme (.5x) ___ _ _ ___ _ _ ___ _ _ ___ _ _
 72
    65
 73
     6
 40
31.75
 49
15.875
 74
     0
 49
-3.174999999999999
 74
     0
 49
3.174999999999999
 74
     0
 49
-3.174999999999999
 74
     0
 49
3.174999999999999
 74
     0
 49
-3.174999999999999
 74
     0
  0
ENDTAB
  0
TABLE
  2
LAYER
  5
2
330
0
100
AcDbSymbolTable
 70
    14
  0
LAYER
  5
10
330
2
100
AcDbSymbolTableRecord
100
AcDbLayerTableRecord
  2
0
 70
     0
 62
     7
  6
Continuous
370
    -3
390
F
  0
LAYER
  5
BA
330
2
100
AcDbSymbolTableRecord
100
AcDbLayerTableRecord
  2
BASIC DEVICE
 70
     0
 62
     7
  6
Continuous
370
    -3
390
F
  0
LAYER
  5
BB
330
2
100
AcDbSymbolTableRecord
100
AcDbLayerTableRecord
  2
AXIS
 70
     0
 62
     4
  6
GEN7
370
    -3
390
F
  0
LAYER
  5
16C
330
2
100
AcDbSymbolTableRecord
100
AcDbLayerTableRecord
  2
POINT D'ACCROCHAGE
 70
     0
 62
    30
  6
Continuous
290
     0
370
    -3
390
F
  0
LAYER
  5
238
330
2
100
AcDbSymbolTableRecord
100
AcDbLayerTableRecord
  2
COVER FUSE
 70
     0
 62
     6
  6
Continuous
370
    -3
390
F
  0
LAYER
  5
2CB
330
2
100
AcDbSymbolTableRecord
100
AcDbLayerTableRecord
  2
INTER PHASE SCREEN
 70
     0
 62
     5
  6
Continuous
370
    50
390
F
  0
LAYER
  5
7AD
330
2
100
AcDbSymbolTableRecord
100
AcDbLayerTableRecord
  2
G2 EXTERN_HANDLE
 70
     0
 62
     7
  6
Continuous
370
    -3
390
F
  0
LAYER
  5
7AE
330
2
100
AcDbSymbolTableRecord
100
AcDbLayerTableRecord
  2
G2 MOVING
 70
     0
 62
     1
  6
AM_ISO02W050
370
    -3
390
F
  0
LAYER
  5
815
330
2
100
AcDbSymbolTableRecord
100
AcDbLayerTableRecord
  2
DEVICE FIXING HOLES
 70
     0
 62
     1
  6
Continuous
370
    -3
390
F
  0
LAYER
  5
A6D
330
2
100
AcDbSymbolTableRecord
100
AcDbLayerTableRecord
  2
HANDLE FIXING HOLES
 70
     0
 62
     1
  6
Continuous
370
    -3
390
F
  0
LAYER
  5
A6F
330
2
100
AcDbSymbolTableRecord
100
AcDbLayerTableRecord
  2
Defpoints
 70
     0
 62
     7
  6
Continuous
290
     0
370
    -3
390
F
  0
LAYER
  5
A70
330
2
100
AcDbSymbolTableRecord
100
AcDbLayerTableRecord
  2
TEXT
 70
     0
 62
     2
  6
Continuous
370
    35
390
F
  0
LAYER
  5
EBE
330
2
100
AcDbSymbolTableRecord
100
AcDbLayerTableRecord
  2
QUOTATION
 70
     0
 62
     3
  6
Continuous
370
    25
390
F
  0
LAYER
  5
14EB
330
2
100
AcDbSymbolTableRecord
100
AcDbLayerTableRecord
  2
CAGE COMMANDE
 70
     0
 62
    30
  6
Continuous
370
    50
390
F
  0
ENDTAB
  0
TABLE
  2
STYLE
  5
3
330
0
100
AcDbSymbolTable
 70
     6
  0
STYLE
  5
11
330
3
100
AcDbSymbolTableRecord
100
AcDbTextStyleTableRecord
  2
STANDARD
 70
     0
 40
0.0
 41
1.0
 50
0.0
 71
     0
 42
2.5
  3
ISOCP.SHX
  4

  0
STYLE
  5
54
330
3
100
AcDbSymbolTableRecord
100
AcDbTextStyleTableRecord
  2

 70
     1
 40
0.0
 41
1.0
 50
0.0
 71
     0
 42
2.5
  3
ltypeshp.shx
  4

  0
STYLE
  5
56
330
3
100
AcDbSymbolTableRecord
100
AcDbTextStyleTableRecord
  2
ACISOTS
 70
     0
 40
1.0
 41
1.0
 50
0.0
 71
     0
 42
0.2
  3
isocp.shx
  4

  0
STYLE
  5
62
330
3
100
AcDbSymbolTableRecord
100
AcDbTextStyleTableRecord
  2
ACISOGDT
 70
     0
 40
0.0
 41
1.0
 50
0.0
 71
     0
 42
0.2
  3
amgdt.shx
  4

  0
STYLE
  5
133E
330
3
100
AcDbSymbolTableRecord
100
AcDbTextStyleTableRecord
  2
TEXTE
 70
     0
 40
0.0
 41
1.0
 50
0.0
 71
     0
 42
4.0
  3
TIMES.TTF
  4

1001
ACAD
1000
Times New Roman
1071
       18
  0
STYLE
  5
133F
330
3
100
AcDbSymbolTableRecord
100
AcDbTextStyleTableRecord
  2
reference
 70
     0
 40
0.0
 41
1.0
 50
0.0
 71
     0
 42
5.0
  3
TIMESBD0.TTF
  4

1001
ACAD
1000
Times New Roman
1071
 33554450
  0
ENDTAB
  0
TABLE
  2
VIEW
  5
6
330
0
100
AcDbSymbolTable
 70
     6
  0
VIEW
  5
E91
330
6
100
AcDbSymbolTableRecord
100
AcDbViewTableRecord
  2
AM_VIEW1
 70
     0
 40
297.0
 10
842.4108184769043
 20
918.4232618216817
 41
454.9080745341616
 11
0.0
 21
0.0
 31
1.0
 12
0.0
 22
0.0
 32
0.0
 42
50.0
 43
0.0
 44
0.0
 50
0.0
 71
    16
281
     0
 72
     0
  0
VIEW
  5
E92
330
6
100
AcDbSymbolTableRecord
100
AcDbViewTableRecord
  2
AM_VIEW2
 70
     0
 40
297.0
 10
1227.502743942743
 20
918.4232618216817
 41
454.9080745341615
 11
0.0
 21
0.0
 31
1.0
 12
0.0
 22
0.0
 32
0.0
 42
50.0
 43
0.0
 44
0.0
 50
0.0
 71
    16
281
     0
 72
     0
  0
VIEW
  5
E93
330
6
100
AcDbSymbolTableRecord
100
AcDbViewTableRecord
  2
AM_VIEW3
 70
     0
 40
297.0
 10
842.4108184769043
 20
621.4232618216818
 41
454.9080745341616
 11
0.0
 21
0.0
 31
1.0
 12
0.0
 22
0.0
 32
0.0
 42
50.0
 43
0.0
 44
0.0
 50
0.0
 71
    16
281
     0
 72
     0
  0
VIEW
  5
E94
330
6
100
AcDbSymbolTableRecord
100
AcDbViewTableRecord
  2
AM_VIEW4
 70
     0
 40
297.0
 10
1227.502743942743
 20
621.4232618216818
 41
454.9080745341615
 11
0.0
 21
0.0
 31
1.0
 12
0.0
 22
0.0
 32
0.0
 42
50.0
 43
0.0
 44
0.0
 50
0.0
 71
    16
281
     0
 72
     0
  0
VIEW
  5
E95
330
6
100
AcDbSymbolTableRecord
100
AcDbViewTableRecord
  2
AM_VIEW5
 70
     0
 40
297.0
 10
1034.956781209823
 20
769.9232618216817
 41
454.9080745341616
 11
0.0
 21
0.0
 31
1.0
 12
0.0
 22
0.0
 32
0.0
 42
50.0
 43
0.0
 44
0.0
 50
0.0
 71
    16
281
     0
 72
     0
  0
VIEW
  5
E96
330
6
100
AcDbSymbolTableRecord
100
AcDbViewTableRecord
  2
AM_VIEW6
 70
     0
 40
593.9940599999999
 10
1034.956781209823
 20
769.9232618216817
 41
909.8070509068325
 11
0.0
 21
0.0
 31
1.0
 12
0.0
 22
0.0
 32
0.0
 42
50.0
 43
0.0
 44
0.0
 50
0.0
 71
    16
281
     0
 72
     0
  0
ENDTAB
  0
TABLE
  2
UCS
  5
7
330
0
100
AcDbSymbolTable
 70
     0
  0
ENDTAB
  0
TABLE
  2
APPID
  5
9
330
0
100
AcDbSymbolTable
 70
    40
  0
APPID
  5
12
330
9
100
AcDbSymbolTableRecord
100
AcDbRegAppTableRecord
  2
ACAD
 70
     0
  0
APPID
  5
2C
330
9
100
AcDbSymbolTableRecord
100
AcDbRegAppTableRecord
  2
MCAD_NO_VIS
 70
     0
  0
APPID
  5
2D
330
9
100
AcDbSymbolTableRecord
100
AcDbRegAppTableRecord
  2
ACAD_TEMP_GRAPHIC
 70
     0
  0
APPID
  5
3E
330
9
100
AcDbSymbolTableRecord
100
AcDbRegAppTableRecord
  2
ACATTRIBSERVICES
 70
     0
  0
APPID
  5
BD
330
9
100
AcDbSymbolTableRecord
100
AcDbRegAppTableRecord
  2
GENIUS_GENODEF_13
 70
     0
  0
APPID
  5
BE
330
9
100
AcDbSymbolTableRecord
100
AcDbRegAppTableRecord
  2
GENIUS_GENOREF_13
 70
     0
  0
APPID
  5
BF
330
9
100
AcDbSymbolTableRecord
100
AcDbRegAppTableRecord
  2
GENIUS_GENOBJ-N-REC_13
 70
     0
  0
APPID
  5
C0
330
9
100
AcDbSymbolTableRecord
100
AcDbRegAppTableRecord
  2
GENIUS_GENFIL_13
 70
     0
  0
APPID
  5
C1
330
9
100
AcDbSymbolTableRecord
100
AcDbRegAppTableRecord
  2
GENIUS_GENOBJ-N-CHA_13
 70
     0
  0
APPID
  5
C2
330
9
100
AcDbSymbolTableRecord
100
AcDbRegAppTableRecord
  2
GENIUS_GENOBJ-N-CEN_13
 70
     0
  0
APPID
  5
C3
330
9
100
AcDbSymbolTableRecord
100
AcDbRegAppTableRecord
  2
GENIUS_GENREC_14
 70
     0
  0
APPID
  5
C4
330
9
100
AcDbSymbolTableRecord
100
AcDbRegAppTableRecord
  2
GENIUS_GENOBJ-N-CRS_13
 70
     0
  0
APPID
  5
C5
330
9
100
AcDbSymbolTableRecord
100
AcDbRegAppTableRecord
  2
GENIUS_GENOENT_13
 70
     0
  0
APPID
  5
C6
330
9
100
AcDbSymbolTableRecord
100
AcDbRegAppTableRecord
  2
GENIUS_GENOLIS_13
 70
     0
  0
APPID
  5
C7
330
9
100
AcDbSymbolTableRecord
100
AcDbRegAppTableRecord
  2
GEVID1013096366
 70
     0
  0
APPID
  5
C8
330
9
100
AcDbSymbolTableRecord
100
AcDbRegAppTableRecord
  2
GEVMK
 70
     0
  0
APPID
  5
C9
330
9
100
AcDbSymbolTableRecord
100
AcDbRegAppTableRecord
  2
GEVDC
 70
     0
  0
APPID
  5
CA
330
9
100
AcDbSymbolTableRecord
100
AcDbRegAppTableRecord
  2
GENIUS_GENBH_13
 70
     0
  0
APPID
  5
CB
330
9
100
AcDbSymbolTableRecord
100
AcDbRegAppTableRecord
  2
GENIUS_GENOBJ-NBEHI-BHF_13
 70
     0
  0
APPID
  5
CC
330
9
100
AcDbSymbolTableRecord
100
AcDbRegAppTableRecord
  2
GENIUS_GENOBJ-NBEHI-BHB_13
 70
     0
  0
APPID
  5
CD
330
9
100
AcDbSymbolTableRecord
100
AcDbRegAppTableRecord
  2
GENIUS_GENCFG_13
 70
     0
1001
GENIUS_GENCFG0_13
1000
GEN
  0
APPID
  5
CE
330
9
100
AcDbSymbolTableRecord
100
AcDbRegAppTableRecord
  2
GENIUS_GENCFG0_13
 70
     0
1001
GENIUS_GENCFG_13
1071
1103550173
1000
CE
1000
GEN
1070
     0
  0
APPID
  5
CF
330
9
100
AcDbSymbolTableRecord
100
AcDbRegAppTableRecord
  2
GEVID1013162926
 70
     0
  0
APPID
  5
5D1
330
9
100
AcDbSymbolTableRecord
100
AcDbRegAppTableRecord
  2
GENIUS_GE3MANIP_13
 70
     0
  0
APPID
  5
666
330
9
100
AcDbSymbolTableRecord
100
AcDbRegAppTableRecord
  2
GENIUS_GENOBJ-N-HTC_13
 70
     0
  0
APPID
  5
667
330
9
100
AcDbSymbolTableRecord
100
AcDbRegAppTableRecord
  2
GENIUS_GENHATCH_13
 70
     0
  0
APPID
  5
7AF
330
9
100
AcDbSymbolTableRecord
100
AcDbRegAppTableRecord
  2
GENIUS_GENOBJ_13
 70
     0
  0
APPID
  5
7B0
330
9
100
AcDbSymbolTableRecord
100
AcDbRegAppTableRecord
  2
GENIUS_GENOBJ-N-FIL_13
 70
     0
  0
APPID
  5
7B1
330
9
100
AcDbSymbolTableRecord
100
AcDbRegAppTableRecord
  2
GENIUS_GENOBJ-N-TIT_13
 70
     0
  0
APPID
  5
7B2
330
9
100
AcDbSymbolTableRecord
100
AcDbRegAppTableRecord
  2
GENIUS_GENTITLE_13
 70
     0
  0
APPID
  5
7B3
330
9
100
AcDbSymbolTableRecord
100
AcDbRegAppTableRecord
  2
GENIUS_GENZVEED_13
 70
     0
  0
APPID
  5
7B4
330
9
100
AcDbSymbolTableRecord
100
AcDbRegAppTableRecord
  2
GENIUS_GENSCREG_15
 70
     0
  0
APPID
  5
7B5
330
9
100
AcDbSymbolTableRecord
100
AcDbRegAppTableRecord
  2
GENIUS_GENOBJ-N-SDF_13
 70
     0
  0
APPID
  5
7B6
330
9
100
AcDbSymbolTableRecord
100
AcDbRegAppTableRecord
  2
GENIUS_GENDTOL_13
 70
     0
  0
APPID
  5
1403
330
9
100
AcDbSymbolTableRecord
100
AcDbRegAppTableRecord
  2
CONTENTBLOCKICON
 70
     0
  0
APPID
  5
1831
330
9
100
AcDbSymbolTableRecord
100
AcDbRegAppTableRecord
  2
AD_DRAW
 70
     0
  0
APPID
  5
1832
330
9
100
AcDbSymbolTableRecord
100
AcDbRegAppTableRecord
  2
AMACAD
 70
     0
  0
APPID
  5
1833
330
9
100
AcDbSymbolTableRecord
100
AcDbRegAppTableRecord
  2
DESIGNERASSEMBLIES
 70
     0
  0
APPID
  5
1834
330
9
100
AcDbSymbolTableRecord
100
AcDbRegAppTableRecord
  2
ACADM_DIM_EDIT
 70
     0
  0
APPID
  5
1835
330
9
100
AcDbSymbolTableRecord
100
AcDbRegAppTableRecord
  2
AMDT_DM_ADJ
 70
     0
  0
ENDTAB
  0
TABLE
  2
DIMSTYLE
  5
A
330
0
100
AcDbSymbolTable
 70
     7
100
AcDbDimStyleTable
 71
     0
  0
DIMSTYLE
105
6A
102
{ACAD_REACTORS
330
A96
330
A97
330
ECD
330
F0E
330
F4F
330
F90
330
FD1
330
1014
330
1055
330
10A0
330
10EA
330
1133
330
1174
330
11B5
330
1237
330
1698
102
}
330
A
100
AcDbSymbolTableRecord
100
AcDbDimStyleTableRecord
  2
AM_ISO
 70
     0
  4
"
 41
2.5
 42
1.0
 43
10.0
 44
1.0
 47
0.1
 48
0.1
 73
     0
 74
     0
 77
     1
 78
     8
 79
     2
140
3.5
141
0.0
143
0.0393701
146
0.71
147
1.5
172
     1
176
   256
177
   256
178
     2
271
     2
272
     3
274
     4
283
     0
284
     8
340
11
371
    -1
372
    -1
  0
DIMSTYLE
105
6B
102
{ACAD_REACTORS
330
A93
330
A94
330
11EF
102
}
330
A
100
AcDbSymbolTableRecord
100
AcDbDimStyleTableRecord
  2
AM_ISO$3
 70
     0
  4
"
 41
2.5
 42
1.0
 43
10.0
 44
1.0
 47
0.1
 48
0.1
 73
     0
 77
     1
 78
     8
 79
     2
140
3.5
141
0.0
143
0.0393701
146
0.71
147
1.5
176
   256
177
   256
178
     2
271
     2
272
     3
274
     4
283
     0
284
     8
288
     1
289
     0
340
11
371
    -1
372
    -1
  0
DIMSTYLE
105
6C
330
A
100
AcDbSymbolTableRecord
100
AcDbDimStyleTableRecord
  2
AM_ISO$4
 70
     0
  4
"
 41
2.5
 42
1.0
 43
10.0
 44
1.0
 47
0.1
 48
0.1
 73
     0
 77
     1
 78
     8
 79
     2
140
3.5
141
0.0
143
0.0393701
146
0.71
147
1.5
176
   256
177
   256
178
     2
271
     2
272
     3
274
     4
283
     0
284
     8
288
     1
289
     0
340
11
371
    -1
372
    -1
  0
DIMSTYLE
105
6D
330
A
100
AcDbSymbolTableRecord
100
AcDbDimStyleTableRecord
  2
AM_ISO$6
 70
     0
  4
"
 41
2.5
 42
1.0
 43
10.0
 44
1.0
 47
0.1
 48
0.1
 73
     0
 74
     0
 78
     8
 79
     2
140
3.5
141
0.0
143
0.0393701
146
0.71
147
1.5
172
     1
176
   256
177
   256
178
     2
271
     2
272
     3
274
     4
283
     0
284
     8
340
11
371
    -1
372
    -1
  0
DIMSTYLE
105
6E
330
A
100
AcDbSymbolTableRecord
100
AcDbDimStyleTableRecord
  2
AM_ISO$7
 70
     0
  4
"
 41
2.5
 42
1.0
 43
10.0
 44
1.0
 47
0.1
 48
0.1
 73
     0
 74
     0
 77
     1
 78
     8
 79
     2
140
3.5
141
0.0
143
0.0393701
146
0.71
147
1.5
172
     1
176
   256
177
   256
178
     2
271
     2
272
     3
274
     4
283
     0
284
     8
340
11
371
    -1
372
    -1
  0
DIMSTYLE
105
6F
330
A
100
AcDbSymbolTableRecord
100
AcDbDimStyleTableRecord
  2
AM_ISO$SF
 70
     0
  4
"
 41
2.5
 42
1.0
 43
10.0
 44
1.0
 47
0.1
 48
0.1
 73
     0
 74
     0
 75
     1
 76
     1
 77
     1
 78
     8
 79
     2
140
3.5
141
0.0
143
0.0393701
146
0.71
147
1.5
172
     1
176
   256
177
   256
178
     2
271
     2
272
     3
274
     4
283
     0
284
     8
340
11
371
    -1
372
    -1
  0
DIMSTYLE
105
74
330
A
100
AcDbSymbolTableRecord
100
AcDbDimStyleTableRecord
  2
AM_ISO$SH
 70
     0
  4
"
 41
2.5
 42
1.0
 43
10.0
 44
1.0
 47
0.1
 48
0.1
 73
     0
 74
     0
 75
     1
 76
     1
 77
     1
 78
     8
 79
     2
140
3.5
141
0.0
143
0.0393701
144
2.0
146
0.71
147
1.5
172
     1
173
     1
176
   256
177
   256
178
     2
271
     2
272
     3
274
     4
283
     0
284
     8
340
11
343
70
371
    -1
372
    -1
  0
ENDTAB
  0
TABLE
  2
BLOCK_RECORD
  5
1
330
0
100
AcDbSymbolTable
 70
    43
  0
BLOCK_RECORD
  5
1F
102
{ACAD_XDICTIONARY
360
2B6
102
}
330
1
100
AcDbSymbolTableRecord
100
AcDbBlockTableRecord
  2
*Model_Space
340
22
  0
BLOCK_RECORD
  5
1B
102
{ACAD_XDICTIONARY
360
1379
102
}
330
1
100
AcDbSymbolTableRecord
100
AcDbBlockTableRecord
  2
*Paper_Space
340
1E
  0
BLOCK_RECORD
  5
23
102
{ACAD_XDICTIONARY
360
137B
102
}
330
1
100
AcDbSymbolTableRecord
100
AcDbBlockTableRecord
  2
*Paper_Space0
340
26
  0
BLOCK_RECORD
  5
70
330
1
100
AcDbSymbolTableRecord
100
AcDbBlockTableRecord
  2
GENAXEH
340
0
  0
BLOCK_RECORD
  5
7C
330
1
100
AcDbSymbolTableRecord
100
AcDbBlockTableRecord
  2
56a463 module 1 pole 30A J back
340
0
310
2800000020000000200000000100080000000000000400000000000000000000000000000000000000000000000080000080000000808000800000008000800080800000C0C0C000C0DCC000F0CAA6000020400000206000002080000020A0000020C0000020E00000400000004020000040400000406000004080000040A0
310
000040C0000040E00000600000006020000060400000606000006080000060A0000060C0000060E00000800000008020000080400000806000008080000080A0000080C0000080E00000A0000000A0200000A0400000A0600000A0800000A0A00000A0C00000A0E00000C0000000C0200000C0400000C0600000C0800000C0
310
A00000C0C00000C0E00000E0000000E0200000E0400000E0600000E0800000E0A00000E0C00000E0E00040000000400020004000400040006000400080004000A0004000C0004000E00040200000402020004020400040206000402080004020A0004020C0004020E000404000004040200040404000404060004040800040
310
40A0004040C0004040E00040600000406020004060400040606000406080004060A0004060C0004060E00040800000408020004080400040806000408080004080A0004080C0004080E00040A0000040A0200040A0400040A0600040A0800040A0A00040A0C00040A0E00040C0000040C0200040C0400040C0600040C08000
310
40C0A00040C0C00040C0E00040E0000040E0200040E0400040E0600040E0800040E0A00040E0C00040E0E00080000000800020008000400080006000800080008000A0008000C0008000E00080200000802020008020400080206000802080008020A0008020C0008020E00080400000804020008040400080406000804080
310
008040A0008040C0008040E00080600000806020008060400080606000806080008060A0008060C0008060E00080800000808020008080400080806000808080008080A0008080C0008080E00080A0000080A0200080A0400080A0600080A0800080A0A00080A0C00080A0E00080C0000080C0200080C0400080C0600080C0
310
800080C0A00080C0C00080C0E00080E0000080E0200080E0400080E0600080E0800080E0A00080E0C00080E0E000C0000000C0002000C0004000C0006000C0008000C000A000C000C000C000E000C0200000C0202000C0204000C0206000C0208000C020A000C020C000C020E000C0400000C0402000C0404000C0406000C0
310
408000C040A000C040C000C040E000C0600000C0602000C0604000C0606000C0608000C060A000C060C000C060E000C0800000C0802000C0804000C0806000C0808000C080A000C080C000C080E000C0A00000C0A02000C0A04000C0A06000C0A08000C0A0A000C0A0C000C0A0E000C0C00000C0C02000C0C04000C0C06000
310
C0C08000C0C0A000F0FBFF00A4A0A000808080000000FF0000FF000000FFFF00FF000000FF00FF00FFFF0000FFFFFF00060606060606060606060606060606060606060606060606060606060606060606060606060606060606FFFFFFFFFFFFFFFFFFFFFFFF0606060606060606060606060606060606060606FFFF060606
310
0606060606FFFF0606060606060606060606060606060606060606FFFF0606060606060606FFFF0606060606060606060606060606060606060606FFFF060606FE06060606FFFF0606060606060606060606060606060606060606FFFF060606FE06060606FFFF0606060606060606060606060606060606060606FFFFFFFF
310
FFFEFFFFFFFFFFFF0606060606060606060606060606060606060606FFFFFFFFFFFEFFFFFFFFFFFF0606060606060606060606060606060606060606FFFFFFFFFFFEFFFFFFFFFFFF0606060606060606060606060606060606060606FFFF0606FFFE06FF0606FFFF0606060606060606060606060606060606060606FFFF06
310
06FFFEFFFF0606FFFF0606060606060606060606060606060606060606FFFF0606060606060606FFFF0606060606060606060606060606060606060606FFFF0606060606060606FFFF0606060606060606060606060606060606060606FFFFFFFFFFFFFFFFFFFFFFFF0606060606060606060606060606060606060606FFFF
310
FF060606060606FFFFFF0606060606060606060606060606060606060606FFFFFFFFFFFFFFFFFFFFFFFF0606060606060606060606060606060606060606FFFF0606060606060606FFFF0606060606060606060606060606060606060606FFFFFFFFFFFFFFFFFFFFFFFF0606060606060606060606060606060606060606FF
310
FFFF060606FF0606FFFFFF0606060606060606060606060606060606060606FFFFFFFFFFFFFFFFFFFFFFFF0606060606060606060606060606060606060606FFFF06060606FF060606FFFF0606060606060606060606060606060606060606FFFF0606060606060606FFFF0606060606060606060606060606060606060606
310
FFFF0606060606060606FFFF0606060606060606060606060606060606060606FFFF0606060606060606FFFF0606060606060606060606060606060606060606FFFF0606060606060606FFFF0606060606060606060606060606060606060606FFFF0606060606060606FFFF06060606060606060606060606060606060606
310
06FFFF0606060606060606FFFF0606060606060606060606060606060606060606FFFF0606060606060606FFFF0606060606060606060606060606060606060606FFFF0606060606060606FFFF0606060606060606060606060606060606060606FFFFFFFFFFFFFFFFFFFFFFFF060606060606060606060606060606060606
310
0606FFFFFFFFFFFFFFFFFFFFFFFF060606060606060606060606060606060606060606060606060606060606060606060606060606060606
102
{BLKREFS
331
12A3
331
12A5
331
12A7
102
}
1001
ACAD
1000
DesignCenter Data
1002
{
1070
     1
1070
     4
1002
}
  0
BLOCK_RECORD
  5
DF
330
1
100
AcDbSymbolTableRecord
100
AcDbBlockTableRecord
  2
56a463 module 1 pole 30A J front
340
0
310
2800000020000000200000000100080000000000000400000000000000000000000000000000000000000000000080000080000000808000800000008000800080800000C0C0C000C0DCC000F0CAA6000020400000206000002080000020A0000020C0000020E00000400000004020000040400000406000004080000040A0
310
000040C0000040E00000600000006020000060400000606000006080000060A0000060C0000060E00000800000008020000080400000806000008080000080A0000080C0000080E00000A0000000A0200000A0400000A0600000A0800000A0A00000A0C00000A0E00000C0000000C0200000C0400000C0600000C0800000C0
310
A00000C0C00000C0E00000E0000000E0200000E0400000E0600000E0800000E0A00000E0C00000E0E00040000000400020004000400040006000400080004000A0004000C0004000E00040200000402020004020400040206000402080004020A0004020C0004020E000404000004040200040404000404060004040800040
310
40A0004040C0004040E00040600000406020004060400040606000406080004060A0004060C0004060E00040800000408020004080400040806000408080004080A0004080C0004080E00040A0000040A0200040A0400040A0600040A0800040A0A00040A0C00040A0E00040C0000040C0200040C0400040C0600040C08000
310
40C0A00040C0C00040C0E00040E0000040E0200040E0400040E0600040E0800040E0A00040E0C00040E0E00080000000800020008000400080006000800080008000A0008000C0008000E00080200000802020008020400080206000802080008020A0008020C0008020E00080400000804020008040400080406000804080
310
008040A0008040C0008040E00080600000806020008060400080606000806080008060A0008060C0008060E00080800000808020008080400080806000808080008080A0008080C0008080E00080A0000080A0200080A0400080A0600080A0800080A0A00080A0C00080A0E00080C0000080C0200080C0400080C0600080C0
310
800080C0A00080C0C00080C0E00080E0000080E0200080E0400080E0600080E0800080E0A00080E0C00080E0E000C0000000C0002000C0004000C0006000C0008000C000A000C000C000C000E000C0200000C0202000C0204000C0206000C0208000C020A000C020C000C020E000C0400000C0402000C0404000C0406000C0
310
408000C040A000C040C000C040E000C0600000C0602000C0604000C0606000C0608000C060A000C060C000C060E000C0800000C0802000C0804000C0806000C0808000C080A000C080C000C080E000C0A00000C0A02000C0A04000C0A06000C0A08000C0A0A000C0A0C000C0A0E000C0C00000C0C02000C0C04000C0C06000
310
C0C08000C0C0A000F0FBFF00A4A0A000808080000000FF0000FF000000FFFF00FF000000FF00FF00FFFF0000FFFFFF00060606060606060606060606060606060606060606060606060606060606060606060606060606060606060606060606FE06060606060606060606060606060606060606060606060606060606FFFF
310
FFFEFFFF0606060606060606060606060606060606060606060606060606FFFFFFFEFFFFFF06060606060606060606060606060606060606060606060606FFFFFFFEFEFEFF06060606060606060606060606060606060606060606060606FFFFFFFEFFFFFF06060606060606060606060606060606060606060606060606FF
310
FFFFFEFFFFFF06060606060606060606060606060606060606060606060606FFFFFFFE06FFFF06060606060606060606060606060606060606060606060606FFFFFFFEFEFFFF060606060606060606060606060606060606060606060606FFFFFFFFFEFFFFFF060606060606060606060606060606060606060606060606FF
310
FFFF06FE06FFFF06060606060606060606060606060606060606060606060606FFFF060606FFFF06060606060606060606060606060606060606060606060606FFFFFFFFFFFFFF06060606060606060606060606060606060606060606060606FF0606060606FF060606060606060606060606060606060606060606060606
310
06FF0606060606FF06060606060606060606060606060606060606060606060606FF0606060606FF06060606060606060606060606060606060606060606060606FF0606060606FF06060606060606060606060606060606060606060606060606FF0606060606FF0606060606060606060606060606060606060606060606
310
0606FF0606060606FF06060606060606060606060606060606060606060606060606FFFFFFFFFFFFFF06060606060606060606060606060606060606060606060606FFFF060606FFFF060606060606060606060606060606060606060606060606FFFFFF060606FFFF06060606060606060606060606060606060606060606
310
0606FFFFFFFFFEFFFFFF060606060606060606060606060606060606060606060606FFFFFFFFFE06FFFF06060606060606060606060606060606060606060606060606FFFFFFFEFEFFFF06060606060606060606060606060606060606060606060606FFFFFFFEFFFFFF060606060606060606060606060606060606060606
310
06060606FFFFFFFEFFFFFF06060606060606060606060606060606060606060606060606FFFFFFFEFFFFFF06060606060606060606060606060606060606060606060606FFFFFFFEFFFEFF06060606060606060606060606060606060606060606060606FFFFFFFEFFFFFF0606060606060606060606060606060606060606
310
0606060606FFFFFFFEFFFF060606060606060606060606060606060606060606060606060606060606060606060606060606060606060606
102
{BLKREFS
331
12C2
331
12C6
331
12C7
102
}
1001
ACAD
1000
DesignCenter Data
1002
{
1070
     1
1070
     4
1002
}
  0
BLOCK_RECORD
  5
229
330
1
100
AcDbSymbolTableRecord
100
AcDbBlockTableRecord
  2
522048 cover fuse back
340
0
310
2800000020000000200000000100080000000000000400000000000000000000000000000000000000000000000080000080000000808000800000008000800080800000C0C0C000C0DCC000F0CAA6000020400000206000002080000020A0000020C0000020E00000400000004020000040400000406000004080000040A0
310
000040C0000040E00000600000006020000060400000606000006080000060A0000060C0000060E00000800000008020000080400000806000008080000080A0000080C0000080E00000A0000000A0200000A0400000A0600000A0800000A0A00000A0C00000A0E00000C0000000C0200000C0400000C0600000C0800000C0
310
A00000C0C00000C0E00000E0000000E0200000E0400000E0600000E0800000E0A00000E0C00000E0E00040000000400020004000400040006000400080004000A0004000C0004000E00040200000402020004020400040206000402080004020A0004020C0004020E000404000004040200040404000404060004040800040
310
40A0004040C0004040E00040600000406020004060400040606000406080004060A0004060C0004060E00040800000408020004080400040806000408080004080A0004080C0004080E00040A0000040A0200040A0400040A0600040A0800040A0A00040A0C00040A0E00040C0000040C0200040C0400040C0600040C08000
310
40C0A00040C0C00040C0E00040E0000040E0200040E0400040E0600040E0800040E0A00040E0C00040E0E00080000000800020008000400080006000800080008000A0008000C0008000E00080200000802020008020400080206000802080008020A0008020C0008020E00080400000804020008040400080406000804080
310
008040A0008040C0008040E00080600000806020008060400080606000806080008060A0008060C0008060E00080800000808020008080400080806000808080008080A0008080C0008080E00080A0000080A0200080A0400080A0600080A0800080A0A00080A0C00080A0E00080C0000080C0200080C0400080C0600080C0
310
800080C0A00080C0C00080C0E00080E0000080E0200080E0400080E0600080E0800080E0A00080E0C00080E0E000C0000000C0002000C0004000C0006000C0008000C000A000C000C000C000E000C0200000C0202000C0204000C0206000C0208000C020A000C020C000C020E000C0400000C0402000C0404000C0406000C0
310
408000C040A000C040C000C040E000C0600000C0602000C0604000C0606000C0608000C060A000C060C000C060E000C0800000C0802000C0804000C0806000C0808000C080A000C080C000C080E000C0A00000C0A02000C0A04000C0A06000C0A08000C0A0A000C0A0C000C0A0E000C0C00000C0C02000C0C04000C0C06000
310
C0C08000C0C0A000F0FBFF00A4A0A000808080000000FF0000FF000000FFFF00FF000000FF00FF00FFFF0000FFFFFF0006060606060606060606060606060606060606060606060606060606060606060606060606060606060606FDFDFDFDFDFDFDFDFDFD06060606060606060606060606060606060606060606FD060606
310
0606060606FD06060606060606060606060606060606060606060606FD06FDFDFDFDFDFD06FD06060606060606060606060606060606060606060606FD06FD06060606FD06FD06060606060606060606060606060606060606060606FD06FDFDFDFDFDFD06FD06060606060606060606060606060606060606060606FD0606
310
060606060606FD0606060606060606060606060606060606060606FDFDFDFDFDFDFDFDFDFDFDFDFDFD0606060606060606060606060606060606FDFD060606060606060606060606FD0606060606060606060606060606060606FDFDFDFDFDFDFDFDFDFDFDFDFDFDFDFD06060606060606060606060606060606FD06060606
310
06060606060606060606FD06060606060606060606060606060606FD0606060606060606060606060606FD06060606060606060606060606060606FD06060606FDFDFDFDFDFDFDFDFD06FD06060606060606060606060606060606FD06060606FD06FDFD06FDFD06FD06FD06060606060606060606060606060606FD060606
310
06FD06FDFD06FDFD06FD06FD06060606060606060606060606060606FD06060606FD06FDFD06FDFD06FD06FD06060606060606060606060606060606FD06060606FD06FDFD06FDFD06FD06FD06060606060606060606060606060606FD06060606FD06FDFD06FDFD06FD06FD06060606060606060606060606060606FD0606
310
0606FD06FDFD06FDFD06FD06FD06060606060606060606060606060606FD06060606FD06FDFD06FDFD06FDFDFD06060606060606060606060606060606FDFD060606FD06FDFD06FDFDFDFD06FD06060606060606060606060606060606FD06FDFD06FDFDFDFDFDFDFD060606FD06060606060606060606060606060606FD06
310
0606FDFD06FDFD060606060606FD06060606060606060606060606060606FD06FDFDFDFDFDFDFDFDFD06060606FD06060606060606060606060606060606FD06FD06FDFD06FDFD06FD06060606FD06060606060606060606060606060606FDFDFD06FDFD06FDFD06FD060606FD060606060606060606060606060606060606
310
06FDFDFDFD06FDFD06FD060606FD060606060606060606060606060606060606060606FDFD06FDFD06FD0606FD0606060606060606060606060606060606060606060606FDFDFDFD06FD06FD0606060606060606060606060606060606060606060606060606FDFDFDFD06FD06060606060606060606060606060606060606
310
06060606060606060606FDFD0606060606060606060606060606060606060606060606060606060606060606060606060606060606060606
102
{BLKREFS
331
12A0
331
12A1
331
12A2
102
}
1001
ACAD
1000
DesignCenter Data
1002
{
1070
     1
1070
     4
1002
}
  0
BLOCK_RECORD
  5
240
330
1
100
AcDbSymbolTableRecord
100
AcDbBlockTableRecord
  2
522048 cover fuse front
340
0
310
2800000020000000200000000100080000000000000400000000000000000000000000000000000000000000000080000080000000808000800000008000800080800000C0C0C000C0DCC000F0CAA6000020400000206000002080000020A0000020C0000020E00000400000004020000040400000406000004080000040A0
310
000040C0000040E00000600000006020000060400000606000006080000060A0000060C0000060E00000800000008020000080400000806000008080000080A0000080C0000080E00000A0000000A0200000A0400000A0600000A0800000A0A00000A0C00000A0E00000C0000000C0200000C0400000C0600000C0800000C0
310
A00000C0C00000C0E00000E0000000E0200000E0400000E0600000E0800000E0A00000E0C00000E0E00040000000400020004000400040006000400080004000A0004000C0004000E00040200000402020004020400040206000402080004020A0004020C0004020E000404000004040200040404000404060004040800040
310
40A0004040C0004040E00040600000406020004060400040606000406080004060A0004060C0004060E00040800000408020004080400040806000408080004080A0004080C0004080E00040A0000040A0200040A0400040A0600040A0800040A0A00040A0C00040A0E00040C0000040C0200040C0400040C0600040C08000
310
40C0A00040C0C00040C0E00040E0000040E0200040E0400040E0600040E0800040E0A00040E0C00040E0E00080000000800020008000400080006000800080008000A0008000C0008000E00080200000802020008020400080206000802080008020A0008020C0008020E00080400000804020008040400080406000804080
310
008040A0008040C0008040E00080600000806020008060400080606000806080008060A0008060C0008060E00080800000808020008080400080806000808080008080A0008080C0008080E00080A0000080A0200080A0400080A0600080A0800080A0A00080A0C00080A0E00080C0000080C0200080C0400080C0600080C0
310
800080C0A00080C0C00080C0E00080E0000080E0200080E0400080E0600080E0800080E0A00080E0C00080E0E000C0000000C0002000C0004000C0006000C0008000C000A000C000C000C000E000C0200000C0202000C0204000C0206000C0208000C020A000C020C000C020E000C0400000C0402000C0404000C0406000C0
310
408000C040A000C040C000C040E000C0600000C0602000C0604000C0606000C0608000C060A000C060C000C060E000C0800000C0802000C0804000C0806000C0808000C080A000C080C000C080E000C0A00000C0A02000C0A04000C0A06000C0A08000C0A0A000C0A0C000C0A0E000C0C00000C0C02000C0C04000C0C06000
310
C0C08000C0C0A000F0FBFF00A4A0A000808080000000FF0000FF000000FFFF00FF000000FF00FF00FFFF0000FFFFFF00060606060606060606060606060606060606060606060606060606060606060606060606060606060606060606FDFDFDFDFDFD060606060606060606060606060606060606060606060606FDFDFDFD
310
FDFDFDFDFD0606060606060606060606060606060606060606060606FDFDFD0606060606FD0606060606060606060606060606060606060606060606FDFDFD0606060606FD0606060606060606060606060606060606060606060606FDFDFD0606060606FD0606060606060606060606060606060606060606060606FDFDFD
310
0606060606FD0606060606060606060606060606060606060606060606FDFDFD0606060606FD0606060606060606060606060606060606060606060606FDFDFD0606060606FD0606060606060606060606060606060606060606060606FDFDFDFDFDFDFDFDFD0606060606060606060606060606060606060606060606FDFD
310
06060606FD06FD0606060606060606060606060606060606060606060606FDFD06060606FDFDFD0606060606060606060606060606060606060606060606FDFD06060606FD06FD0606060606060606060606060606060606060606060606FDFD06060606FDFDFD0606060606060606060606060606060606060606060606FD
310
FD06060606FDFDFD0606060606060606060606060606060606060606060606FDFD06060606FDFDFD0606060606060606060606060606060606060606060606FDFD06060606FDFDFD0606060606060606060606060606060606060606060606FDFD06060606FDFDFD0606060606060606060606060606060606060606060606
310
FDFD06060606FDFDFD0606060606060606060606060606060606060606060606FDFD06060606FD06FD0606060606060606060606060606060606060606060606FDFD06060606FDFDFD0606060606060606060606060606060606060606060606FDFD06060606FD06FD06060606060606060606060606060606060606060606
310
06FDFDFDFDFDFDFDFDFD0606060606060606060606060606060606060606060606FDFDFD0606060606FD0606060606060606060606060606060606060606060606FDFDFD0606FDFD06FD0606060606060606060606060606060606060606060606FDFDFDFDFDFDFDFDFD060606060606060606060606060606060606060606
310
0606FDFDFD06FDFD06FDFD0606060606060606060606060606060606060606060606FDFDFD06FDFDFDFDFD0606060606060606060606060606060606060606060606FDFDFDFDFDFDFDFDFD0606060606060606060606060606060606060606060606FDFDFDFDFDFDFDFDFD0606060606060606060606060606060606060606
310
0606060606FDFDFDFDFDFD060606060606060606060606060606060606060606060606060606060606060606060606060606060606060606
102
{BLKREFS
331
12C3
331
12C5
331
12C8
102
}
1001
ACAD
1000
DesignCenter Data
1002
{
1070
     1
1070
     4
1002
}
  0
BLOCK_RECORD
  5
26D
330
1
100
AcDbSymbolTableRecord
100
AcDbBlockTableRecord
  2
522048 cover fuse right
340
0
310
2800000020000000200000000100080000000000000400000000000000000000000000000000000000000000000080000080000000808000800000008000800080800000C0C0C000C0DCC000F0CAA6000020400000206000002080000020A0000020C0000020E00000400000004020000040400000406000004080000040A0
310
000040C0000040E00000600000006020000060400000606000006080000060A0000060C0000060E00000800000008020000080400000806000008080000080A0000080C0000080E00000A0000000A0200000A0400000A0600000A0800000A0A00000A0C00000A0E00000C0000000C0200000C0400000C0600000C0800000C0
310
A00000C0C00000C0E00000E0000000E0200000E0400000E0600000E0800000E0A00000E0C00000E0E00040000000400020004000400040006000400080004000A0004000C0004000E00040200000402020004020400040206000402080004020A0004020C0004020E000404000004040200040404000404060004040800040
310
40A0004040C0004040E00040600000406020004060400040606000406080004060A0004060C0004060E00040800000408020004080400040806000408080004080A0004080C0004080E00040A0000040A0200040A0400040A0600040A0800040A0A00040A0C00040A0E00040C0000040C0200040C0400040C0600040C08000
310
40C0A00040C0C00040C0E00040E0000040E0200040E0400040E0600040E0800040E0A00040E0C00040E0E00080000000800020008000400080006000800080008000A0008000C0008000E00080200000802020008020400080206000802080008020A0008020C0008020E00080400000804020008040400080406000804080
310
008040A0008040C0008040E00080600000806020008060400080606000806080008060A0008060C0008060E00080800000808020008080400080806000808080008080A0008080C0008080E00080A0000080A0200080A0400080A0600080A0800080A0A00080A0C00080A0E00080C0000080C0200080C0400080C0600080C0
310
800080C0A00080C0C00080C0E00080E0000080E0200080E0400080E0600080E0800080E0A00080E0C00080E0E000C0000000C0002000C0004000C0006000C0008000C000A000C000C000C000E000C0200000C0202000C0204000C0206000C0208000C020A000C020C000C020E000C0400000C0402000C0404000C0406000C0
310
408000C040A000C040C000C040E000C0600000C0602000C0604000C0606000C0608000C060A000C060C000C060E000C0800000C0802000C0804000C0806000C0808000C080A000C080C000C080E000C0A00000C0A02000C0A04000C0A06000C0A08000C0A0A000C0A0C000C0A0E000C0C00000C0C02000C0C04000C0C06000
310
C0C08000C0C0A000F0FBFF00A4A0A000808080000000FF0000FF000000FFFF00FF000000FF00FF00FFFF0000FFFFFF0006060606060606060606060606060606060606060606060606060606060606060606060606060606060606060606060606060606FDFDFDFDFD06060606060606060606060606060606060606FDFDFD
310
FDFDFDFDFDFDFDFDFDFD06060606060606060606060606060606060606FDFD0606060606FD060606060606060606060606060606060606060606060606FDFD0606060606FD060606060606060606060606060606060606060606060606FDFD0606060606FD060606060606060606060606060606060606060606060606FDFD
310
0606060606FD060606060606060606060606060606060606060606060606FDFD0606060606FD060606060606060606060606060606060606060606060606FDFD0606060606FDFD060606060606060606060606060606060606FDFDFDFDFDFDFD0606060606FDFD060606060606060606060606060606060606FD0606FD0606
310
060606060606FDFD060606060606060606060606060606060606FDFDFDFD0606060606060606FDFD060606060606060606060606060606060606FD0606FD0606060606060606FDFD060606060606060606060606060606060606FDFDFDFD0606060606060606FDFD060606060606060606060606060606060606FDFDFDFD06
310
06060606060606FDFD060606060606060606060606060606060606FDFDFDFD0606060606060606FDFD060606060606060606060606060606060606FDFDFDFD0606060606060606FDFD060606060606060606060606060606060606FDFDFDFD0606060606060606FDFD060606060606060606060606060606060606FDFDFDFD
310
0606060606060606FDFD060606060606060606060606060606060606FD0606FD0606060606060606FDFD060606060606060606060606060606060606FDFDFDFD0606060606060606FDFD060606060606060606060606060606060606FD0606FD0606060606060606FDFD060606060606060606060606060606060606FDFDFD
310
FDFDFDFD0606060606FDFD0606060606060606060606060606060606060606060606FDFD0606060606FDFD0606060606060606060606060606060606060606060606FDFD0606060606FD060606060606060606060606060606060606060606060606FDFD0606060606FD060606060606060606060606060606060606060606
310
060606FDFD0606060606FD060606060606060606060606060606060606060606060606FDFD0606060606FD060606060606060606060606060606060606060606060606FDFD0606060606FD060606060606060606060606060606060606060606060606FDFDFDFDFDFDFDFDFDFDFDFDFD060606060606060606060606060606
310
060606060606060606060606FDFDFDFDFD060606060606060606060606060606060606060606060606060606060606060606060606060606
102
{BLKREFS
331
131D
102
}
1001
ACAD
1000
DesignCenter Data
1002
{
1070
     1
1070
     4
1002
}
  0
BLOCK_RECORD
  5
2C5
330
1
100
AcDbSymbolTableRecord
100
AcDbBlockTableRecord
  2
525766 ecran entre phase back
340
0
310
2800000020000000200000000100080000000000000400000000000000000000000000000000000000000000000080000080000000808000800000008000800080800000C0C0C000C0DCC000F0CAA6000020400000206000002080000020A0000020C0000020E00000400000004020000040400000406000004080000040A0
310
000040C0000040E00000600000006020000060400000606000006080000060A0000060C0000060E00000800000008020000080400000806000008080000080A0000080C0000080E00000A0000000A0200000A0400000A0600000A0800000A0A00000A0C00000A0E00000C0000000C0200000C0400000C0600000C0800000C0
310
A00000C0C00000C0E00000E0000000E0200000E0400000E0600000E0800000E0A00000E0C00000E0E00040000000400020004000400040006000400080004000A0004000C0004000E00040200000402020004020400040206000402080004020A0004020C0004020E000404000004040200040404000404060004040800040
310
40A0004040C0004040E00040600000406020004060400040606000406080004060A0004060C0004060E00040800000408020004080400040806000408080004080A0004080C0004080E00040A0000040A0200040A0400040A0600040A0800040A0A00040A0C00040A0E00040C0000040C0200040C0400040C0600040C08000
310
40C0A00040C0C00040C0E00040E0000040E0200040E0400040E0600040E0800040E0A00040E0C00040E0E00080000000800020008000400080006000800080008000A0008000C0008000E00080200000802020008020400080206000802080008020A0008020C0008020E00080400000804020008040400080406000804080
310
008040A0008040C0008040E00080600000806020008060400080606000806080008060A0008060C0008060E00080800000808020008080400080806000808080008080A0008080C0008080E00080A0000080A0200080A0400080A0600080A0800080A0A00080A0C00080A0E00080C0000080C0200080C0400080C0600080C0
310
800080C0A00080C0C00080C0E00080E0000080E0200080E0400080E0600080E0800080E0A00080E0C00080E0E000C0000000C0002000C0004000C0006000C0008000C000A000C000C000C000E000C0200000C0202000C0204000C0206000C0208000C020A000C020C000C020E000C0400000C0402000C0404000C0406000C0
310
408000C040A000C040C000C040E000C0600000C0602000C0604000C0606000C0608000C060A000C060C000C060E000C0800000C0802000C0804000C0806000C0808000C080A000C080C000C080E000C0A00000C0A02000C0A04000C0A06000C0A08000C0A0A000C0A0C000C0A0E000C0C00000C0C02000C0C04000C0C06000
310
C0C08000C0C0A000F0FBFF00A4A0A000808080000000FF0000FF000000FFFF00FF000000FF00FF00FFFF0000FFFFFF0006060606060606060606060606060606060606060606060606060606060606060606060606060606060606060606FFFFFFFF06060606060606060606060606060606060606060606060606060606FF
310
0606FF06060606060606060606060606060606060606060606060606060606FF0606FF06060606060606060606060606060606060606060606060606060606FF0606FF06060606060606060606060606060606060606060606060606060606FF0606FF06060606060606060606060606060606060606060606060606060606
310
FFFFFFFF0606060606060606060606060606060606060606060606060606060606FFFF060606060606060606060606060606060606060606060606060606060606FFFF060606060606060606060606060606060606060606060606060606060606FFFF06060606060606060606060606060606060606060606060606060606
310
0606FFFF060606060606060606060606060606060606060606060606060606060606FFFF060606060606060606060606060606060606060606060606060606060606FFFF060606060606060606060606060606060606060606060606060606060606FFFF060606060606060606060606060606060606060606060606060606
310
060606FFFF060606060606060606060606060606060606060606060606060606060606FFFF060606060606060606060606060606060606060606060606060606060606FFFF060606060606060606060606060606060606060606060606060606060606FFFF0606060606060606060606060606060606060606060606060606
310
06060606FFFF060606060606060606060606060606060606060606060606060606060606FFFF060606060606060606060606060606060606060606060606060606060606FFFF060606060606060606060606060606060606060606060606060606060606FFFF06060606060606060606060606060606060606060606060606
310
0606060606FFFF060606060606060606060606060606060606060606060606060606060606FFFF060606060606060606060606060606060606060606060606060606060606FFFF060606060606060606060606060606060606060606060606060606060606FFFF060606060606060606060606060606060606060606060606
310
060606060606FFFF060606060606060606060606060606060606060606060606060606060606FFFF060606060606060606060606060606060606060606060606060606060606FFFF060606060606060606060606060606060606060606060606060606060606FFFF0606060606060606060606060606060606060606060606
310
06060606060606FFFF0606060606060606060606060606060606060606060606060606060606060606060606060606060606060606060606
102
{BLKREFS
331
12A4
331
12A6
102
}
1001
ACAD
1000
DesignCenter Data
1002
{
1070
     1
1070
     4
1002
}
  0
BLOCK_RECORD
  5
2D2
330
1
100
AcDbSymbolTableRecord
100
AcDbBlockTableRecord
  2
525766 ecran entre phase front
340
0
310
2800000020000000200000000100080000000000000400000000000000000000000000000000000000000000000080000080000000808000800000008000800080800000C0C0C000C0DCC000F0CAA6000020400000206000002080000020A0000020C0000020E00000400000004020000040400000406000004080000040A0
310
000040C0000040E00000600000006020000060400000606000006080000060A0000060C0000060E00000800000008020000080400000806000008080000080A0000080C0000080E00000A0000000A0200000A0400000A0600000A0800000A0A00000A0C00000A0E00000C0000000C0200000C0400000C0600000C0800000C0
310
A00000C0C00000C0E00000E0000000E0200000E0400000E0600000E0800000E0A00000E0C00000E0E00040000000400020004000400040006000400080004000A0004000C0004000E00040200000402020004020400040206000402080004020A0004020C0004020E000404000004040200040404000404060004040800040
310
40A0004040C0004040E00040600000406020004060400040606000406080004060A0004060C0004060E00040800000408020004080400040806000408080004080A0004080C0004080E00040A0000040A0200040A0400040A0600040A0800040A0A00040A0C00040A0E00040C0000040C0200040C0400040C0600040C08000
310
40C0A00040C0C00040C0E00040E0000040E0200040E0400040E0600040E0800040E0A00040E0C00040E0E00080000000800020008000400080006000800080008000A0008000C0008000E00080200000802020008020400080206000802080008020A0008020C0008020E00080400000804020008040400080406000804080
310
008040A0008040C0008040E00080600000806020008060400080606000806080008060A0008060C0008060E00080800000808020008080400080806000808080008080A0008080C0008080E00080A0000080A0200080A0400080A0600080A0800080A0A00080A0C00080A0E00080C0000080C0200080C0400080C0600080C0
310
800080C0A00080C0C00080C0E00080E0000080E0200080E0400080E0600080E0800080E0A00080E0C00080E0E000C0000000C0002000C0004000C0006000C0008000C000A000C000C000C000E000C0200000C0202000C0204000C0206000C0208000C020A000C020C000C020E000C0400000C0402000C0404000C0406000C0
310
408000C040A000C040C000C040E000C0600000C0602000C0604000C0606000C0608000C060A000C060C000C060E000C0800000C0802000C0804000C0806000C0808000C080A000C080C000C080E000C0A00000C0A02000C0A04000C0A06000C0A08000C0A0A000C0A0C000C0A0E000C0C00000C0C02000C0C04000C0C06000
310
C0C08000C0C0A000F0FBFF00A4A0A000808080000000FF0000FF000000FFFF00FF000000FF00FF00FFFF0000FFFFFF000606060606060606060606060606060606060606060606060606060606060606060606060606060606060606060606FFFF0606060606060606060606060606060606060606060606060606060606FF
310
FFFFFF06060606060606060606060606060606060606060606060606060606FFFFFFFF06060606060606060606060606060606060606060606060606060606FFFFFFFF06060606060606060606060606060606060606060606060606060606FFFFFFFF06060606060606060606060606060606060606060606060606060606
310
06FFFF060606060606060606060606060606060606060606060606060606060606FFFF060606060606060606060606060606060606060606060606060606060606FFFF060606060606060606060606060606060606060606060606060606060606FFFF06060606060606060606060606060606060606060606060606060606
310
0606FFFF060606060606060606060606060606060606060606060606060606060606FFFF060606060606060606060606060606060606060606060606060606060606FFFF060606060606060606060606060606060606060606060606060606060606FFFF060606060606060606060606060606060606060606060606060606
310
060606FFFF060606060606060606060606060606060606060606060606060606060606FFFF060606060606060606060606060606060606060606060606060606060606FFFF060606060606060606060606060606060606060606060606060606060606FFFF0606060606060606060606060606060606060606060606060606
310
06060606FFFF060606060606060606060606060606060606060606060606060606060606FFFF060606060606060606060606060606060606060606060606060606060606FFFF060606060606060606060606060606060606060606060606060606060606FFFF06060606060606060606060606060606060606060606060606
310
0606060606FFFF060606060606060606060606060606060606060606060606060606060606FFFF060606060606060606060606060606060606060606060606060606060606FFFF060606060606060606060606060606060606060606060606060606060606FFFF060606060606060606060606060606060606060606060606
310
0606060606FFFFFFFF06060606060606060606060606060606060606060606060606060606FFFFFFFF06060606060606060606060606060606060606060606060606060606FFFFFFFF06060606060606060606060606060606060606060606060606060606FFFFFFFF06060606060606060606060606060606060606060606
310
06060606060606FFFF0606060606060606060606060606060606060606060606060606060606060606060606060606060606060606060606
102
{BLKREFS
331
12C4
331
12C9
102
}
1001
ACAD
1000
DesignCenter Data
1002
{
1070
     1
1070
     4
1002
}
  0
BLOCK_RECORD
  5
2E9
330
1
100
AcDbSymbolTableRecord
100
AcDbBlockTableRecord
  2
525766 ecran entre phase right
340
0
310
2800000020000000200000000100080000000000000400000000000000000000000000000000000000000000000080000080000000808000800000008000800080800000C0C0C000C0DCC000F0CAA6000020400000206000002080000020A0000020C0000020E00000400000004020000040400000406000004080000040A0
310
000040C0000040E00000600000006020000060400000606000006080000060A0000060C0000060E00000800000008020000080400000806000008080000080A0000080C0000080E00000A0000000A0200000A0400000A0600000A0800000A0A00000A0C00000A0E00000C0000000C0200000C0400000C0600000C0800000C0
310
A00000C0C00000C0E00000E0000000E0200000E0400000E0600000E0800000E0A00000E0C00000E0E00040000000400020004000400040006000400080004000A0004000C0004000E00040200000402020004020400040206000402080004020A0004020C0004020E000404000004040200040404000404060004040800040
310
40A0004040C0004040E00040600000406020004060400040606000406080004060A0004060C0004060E00040800000408020004080400040806000408080004080A0004080C0004080E00040A0000040A0200040A0400040A0600040A0800040A0A00040A0C00040A0E00040C0000040C0200040C0400040C0600040C08000
310
40C0A00040C0C00040C0E00040E0000040E0200040E0400040E0600040E0800040E0A00040E0C00040E0E00080000000800020008000400080006000800080008000A0008000C0008000E00080200000802020008020400080206000802080008020A0008020C0008020E00080400000804020008040400080406000804080
310
008040A0008040C0008040E00080600000806020008060400080606000806080008060A0008060C0008060E00080800000808020008080400080806000808080008080A0008080C0008080E00080A0000080A0200080A0400080A0600080A0800080A0A00080A0C00080A0E00080C0000080C0200080C0400080C0600080C0
310
800080C0A00080C0C00080C0E00080E0000080E0200080E0400080E0600080E0800080E0A00080E0C00080E0E000C0000000C0002000C0004000C0006000C0008000C000A000C000C000C000E000C0200000C0202000C0204000C0206000C0208000C020A000C020C000C020E000C0400000C0402000C0404000C0406000C0
310
408000C040A000C040C000C040E000C0600000C0602000C0604000C0606000C0608000C060A000C060C000C060E000C0800000C0802000C0804000C0806000C0808000C080A000C080C000C080E000C0A00000C0A02000C0A04000C0A06000C0A08000C0A0A000C0A0C000C0A0E000C0C00000C0C02000C0C04000C0C06000
310
C0C08000C0C0A000F0FBFF00A4A0A000808080000000FF0000FF000000FFFF00FF000000FF00FF00FFFF0000FFFFFF000606060606060606060606060606060606060606060606060606060606060606060606060606060606060606060606060606060606060606FFFFFFFFFF060606060606060606060606060606060606
310
060606060606060606FF060606FF060606060606060606060606060606060606060606060606060606FF060606FF060606060606060606060606060606060606060606FFFFFFFFFFFFFF060606FF0606060606060606FFFFFFFFFFFFFFFFFFFFFFFFFFFF060606060606060606FF0606060606060606FF0606060606060606
310
0606060606060606060606060606FF06060606060606FF0606060606060606060606060606060606060606060606FF06060606060606FF0606060606060606060606060606060606060606060606FF060606060606FF060606060606060606060606060606060606060606060606FF060606060606FF060606060606060606
310
060606060606060606060606060606FF060606060606FF060606060606060606060606060606060606060606060606FF060606060606FF060606060606060606060606060606060606060606060606FF060606060606FF060606060606060606060606060606060606060606060606FF060606060606FF0606060606060606
310
06060606060606060606060606060606FF060606060606FF060606060606060606060606060606060606060606060606FF060606060606FF060606060606060606060606060606060606060606060606FF060606060606FF060606060606060606060606060606060606060606060606FF060606060606FF06060606060606
310
0606060606060606060606060606060606FF060606060606FF060606060606060606060606060606060606060606060606FF060606060606FF060606060606060606060606060606060606060606060606FF060606060606FF060606060606060606060606060606060606060606060606FF060606060606FF060606060606
310
060606060606060606060606060606060606FF06060606060606FF0606060606060606060606060606060606060606060606FF06060606060606FF0606060606060606060606060606060606060606060606FF0606060606060606FF06060606060606060606060606060606060606060606FF0606060606060606FFFFFFFF
310
FFFFFFFFFFFFFFFFFFFF060606060606060606FF060606060606060606060606060606060606060606FFFFFFFFFFFFFF060606FF060606060606060606060606060606060606060606060606060606FF060606FF060606060606060606060606060606060606060606060606060606FF060606FF0606060606060606060606
310
06060606060606060606060606060606FFFFFFFFFF0606060606060606060606060606060606060606060606060606060606060606060606
102
{BLKREFS
331
1320
102
}
1001
ACAD
1000
DesignCenter Data
1002
{
1070
     1
1070
     4
1002
}
  0
BLOCK_RECORD
  5
79C
330
1
100
AcDbSymbolTableRecord
100
AcDbBlockTableRecord
  2
HANDLE TYPE G2 BACK UL
340
0
310
2800000020000000200000000100080000000000000400000000000000000000000000000000000000000000000080000080000000808000800000008000800080800000C0C0C000C0DCC000F0CAA6000020400000206000002080000020A0000020C0000020E00000400000004020000040400000406000004080000040A0
310
000040C0000040E00000600000006020000060400000606000006080000060A0000060C0000060E00000800000008020000080400000806000008080000080A0000080C0000080E00000A0000000A0200000A0400000A0600000A0800000A0A00000A0C00000A0E00000C0000000C0200000C0400000C0600000C0800000C0
310
A00000C0C00000C0E00000E0000000E0200000E0400000E0600000E0800000E0A00000E0C00000E0E00040000000400020004000400040006000400080004000A0004000C0004000E00040200000402020004020400040206000402080004020A0004020C0004020E000404000004040200040404000404060004040800040
310
40A0004040C0004040E00040600000406020004060400040606000406080004060A0004060C0004060E00040800000408020004080400040806000408080004080A0004080C0004080E00040A0000040A0200040A0400040A0600040A0800040A0A00040A0C00040A0E00040C0000040C0200040C0400040C0600040C08000
310
40C0A00040C0C00040C0E00040E0000040E0200040E0400040E0600040E0800040E0A00040E0C00040E0E00080000000800020008000400080006000800080008000A0008000C0008000E00080200000802020008020400080206000802080008020A0008020C0008020E00080400000804020008040400080406000804080
310
008040A0008040C0008040E00080600000806020008060400080606000806080008060A0008060C0008060E00080800000808020008080400080806000808080008080A0008080C0008080E00080A0000080A0200080A0400080A0600080A0800080A0A00080A0C00080A0E00080C0000080C0200080C0400080C0600080C0
310
800080C0A00080C0C00080C0E00080E0000080E0200080E0400080E0600080E0800080E0A00080E0C00080E0E000C0000000C0002000C0004000C0006000C0008000C000A000C000C000C000E000C0200000C0202000C0204000C0206000C0208000C020A000C020C000C020E000C0400000C0402000C0404000C0406000C0
310
408000C040A000C040C000C040E000C0600000C0602000C0604000C0606000C0608000C060A000C060C000C060E000C0800000C0802000C0804000C0806000C0808000C080A000C080C000C080E000C0A00000C0A02000C0A04000C0A06000C0A08000C0A0A000C0A0C000C0A0E000C0C00000C0C02000C0C04000C0C06000
310
C0C08000C0C0A000F0FBFF00A4A0A000808080000000FF0000FF000000FFFF00FF000000FF00FF00FFFF0000FFFFFF0006060606060606060606060606060606060606060606060606060606060606060606060606060606060606060606060606060606060606060606060606060606060606060606060606060606060606
310
06060606060606060606060606060606060606060606060606060606060606060606060606060606060606060606060606060606060606060606060606060606060606060606060606060606060606060606060606060606060606060606060606060606060606060606060606060606060606060606060606060606060606
310
0606060606060606060606060606060606060606060606060606FE06060606060606060606060606060606060606060606060606060606060606FE060606060606060606060606060606060606060606060606FFFFFFFFFFFFFFFFFFFFFFFFFFFF060606060606060606060606060606060606FF060606060606FE06060606
310
06FF060606060606060606060606060606060606FFFFFFFFFFFFFFFFFFFFFFFFFFFF060606060606060606060606060606060606FFFFFFFFFFFFFFFFFFFFFFFFFFFF0606060606060606060606060606060606060606FF06060606FE060606FF06060606060606060606060606060606060606060606FF06060606FE060606
310
FF06060606060606060606060606060606060606060606FF06060606FE060606FFFFFFFFFFFFFFFFFFFFFFFFFFFFFFFFFFFFFF06060606FF06060606FE060606FF0606060606060606060606060606060606FF06060606FF06FFFFFFFEFFFFFFFF0606060606060606060606060606060606FF06060606FF06FF06FFFFFFFF
310
FF060606060606060606060606060606060606FF06060606FF06FF06FFFFFFFFFF060606060606060606060606060606060606FF06060606FFFFFFFFFFFEFFFFFFFFFFFFFFFFFFFFFFFFFFFFFFFFFFFFFFFFFFFF060606060606FFFF06FE06060606060606060606060606060606060606060606060606060606060606FE06
310
060606060606060606060606060606060606060606060606060606060606FE06060606060606060606060606060606060606060606060606060606060606FE06060606060606060606060606060606060606060606060606060606060606060606060606060606060606060606060606060606060606060606060606060606
310
06060606060606060606060606060606060606060606060606060606060606060606060606060606060606060606060606060606060606060606060606060606060606060606060606060606060606060606060606060606060606060606060606060606060606060606060606060606060606060606060606060606060606
310
0606060606060606060606060606060606060606060606060606060606060606060606060606060606060606060606060606060606060606
102
{BLKREFS
331
129F
102
}
1001
ACAD
1000
DesignCenter Data
1002
{
1070
     1
1070
     4
1002
}
  0
BLOCK_RECORD
  5
7BD
330
1
100
AcDbSymbolTableRecord
100
AcDbBlockTableRecord
  2
HANDLE TYPE G2 FRONT UL
340
0
310
2800000020000000200000000100080000000000000400000000000000000000000000000000000000000000000080000080000000808000800000008000800080800000C0C0C000C0DCC000F0CAA6000020400000206000002080000020A0000020C0000020E00000400000004020000040400000406000004080000040A0
310
000040C0000040E00000600000006020000060400000606000006080000060A0000060C0000060E00000800000008020000080400000806000008080000080A0000080C0000080E00000A0000000A0200000A0400000A0600000A0800000A0A00000A0C00000A0E00000C0000000C0200000C0400000C0600000C0800000C0
310
A00000C0C00000C0E00000E0000000E0200000E0400000E0600000E0800000E0A00000E0C00000E0E00040000000400020004000400040006000400080004000A0004000C0004000E00040200000402020004020400040206000402080004020A0004020C0004020E000404000004040200040404000404060004040800040
310
40A0004040C0004040E00040600000406020004060400040606000406080004060A0004060C0004060E00040800000408020004080400040806000408080004080A0004080C0004080E00040A0000040A0200040A0400040A0600040A0800040A0A00040A0C00040A0E00040C0000040C0200040C0400040C0600040C08000
310
40C0A00040C0C00040C0E00040E0000040E0200040E0400040E0600040E0800040E0A00040E0C00040E0E00080000000800020008000400080006000800080008000A0008000C0008000E00080200000802020008020400080206000802080008020A0008020C0008020E00080400000804020008040400080406000804080
310
008040A0008040C0008040E00080600000806020008060400080606000806080008060A0008060C0008060E00080800000808020008080400080806000808080008080A0008080C0008080E00080A0000080A0200080A0400080A0600080A0800080A0A00080A0C00080A0E00080C0000080C0200080C0400080C0600080C0
310
800080C0A00080C0C00080C0E00080E0000080E0200080E0400080E0600080E0800080E0A00080E0C00080E0E000C0000000C0002000C0004000C0006000C0008000C000A000C000C000C000E000C0200000C0202000C0204000C0206000C0208000C020A000C020C000C020E000C0400000C0402000C0404000C0406000C0
310
408000C040A000C040C000C040E000C0600000C0602000C0604000C0606000C0608000C060A000C060C000C060E000C0800000C0802000C0804000C0806000C0808000C080A000C080C000C080E000C0A00000C0A02000C0A04000C0A06000C0A08000C0A0A000C0A0C000C0A0E000C0C00000C0C02000C0C04000C0C06000
310
C0C08000C0C0A000F0FBFF00A4A0A000808080000000FF0000FF000000FFFF00FF000000FF00FF00FFFF0000FFFFFF0006060606060606060606060606060606060606060606060606060606060606060606060606060606060606060606060606060606060606060606060606060606060606060606060606FE0606060606
310
0606060606060606060606060606060606060606060606060606FE0606060606060606060606060606060606060606060606060606060606F9F9F9F906060606060606060606060606060606060606060606060606060606F906FEF906060606060606060606060606060606060606060606060606060606F906FEF9060606
310
06060606060606060606060606060606060606060606060606F906FEF906060606060606060606060606060606060606060606060606060606F906FEF906060606060606060606060606060606060606060606060606060606F906FEF906060606060606060606060606060606060606060606060606060606F906FEF90606
310
0606060606060606060606060606060606060606060606060606F906FEF906060606060606060606060606060606060606060606060606060606F906FEF906060606060606060606060606060606060606060606060606060606F906FEF906060606060606060606060606060606060606060606060606060606F906FEF906
310
060606060606060606060606060606060606060606060606060606F9F9F9F9060606060606060606060606060606060606060606060606060606060606FE06060606060606060606060606060606060606060606060606060606060606FE0606060606060606060606060606060606060606060606060606060606FFFFFEFF
310
0606060606060606060606060606060606060606060606060606FFFFFFFFFF06FFFF060606060606060606060606060606060606060606060606FFFFFF06FEFFFF06FF06060606060606060606060606060606060606060606FF06FF06FFFE0606FF06FF060606060606060606060606060606060606060606FFFF06FFFFFE
310
FFFFFFFFFFFFFFFFFFFFFFFFFFFFFFFFFFFFFF06060606FEFEFEFEFFFFFEFFFEFEFEFEFEFEFEFEFEFEFEFEFEFEFEFEFEFEFEFEFEFE06060606FF06FFFFFF06FE060606060606060606060606060606060606FF06060606060606FF06FF06FFFFFFFFFFFFFFFFFFFFFFFFFFFFFFFFFFFFFFFFFF06060606060606FF06FFFFFF
310
060606FFFFFF06060606060606060606060606060606060606060606FF06FFFFFFFFFF06FFFF0606060606060606060606060606060606060606060606FFFF0606060606FFFF06060606060606060606060606060606060606060606060606FFFFFFFFFFFFFF06060606060606060606060606060606060606060606060606
310
0606060606060606060606060606060606060606060606060606060606060606060606060606060606060606060606060606060606060606
102
{BLKREFS
331
12C0
102
}
1001
ACAD
1000
DesignCenter Data
1002
{
1070
     1
1070
     4
1002
}
  0
BLOCK_RECORD
  5
7D7
330
1
100
AcDbSymbolTableRecord
100
AcDbBlockTableRecord
  2
HANDLE TYPE G2 RIGHT UL
340
0
310
2800000020000000200000000100080000000000000400000000000000000000000000000000000000000000000080000080000000808000800000008000800080800000C0C0C000C0DCC000F0CAA6000020400000206000002080000020A0000020C0000020E00000400000004020000040400000406000004080000040A0
310
000040C0000040E00000600000006020000060400000606000006080000060A0000060C0000060E00000800000008020000080400000806000008080000080A0000080C0000080E00000A0000000A0200000A0400000A0600000A0800000A0A00000A0C00000A0E00000C0000000C0200000C0400000C0600000C0800000C0
310
A00000C0C00000C0E00000E0000000E0200000E0400000E0600000E0800000E0A00000E0C00000E0E00040000000400020004000400040006000400080004000A0004000C0004000E00040200000402020004020400040206000402080004020A0004020C0004020E000404000004040200040404000404060004040800040
310
40A0004040C0004040E00040600000406020004060400040606000406080004060A0004060C0004060E00040800000408020004080400040806000408080004080A0004080C0004080E00040A0000040A0200040A0400040A0600040A0800040A0A00040A0C00040A0E00040C0000040C0200040C0400040C0600040C08000
310
40C0A00040C0C00040C0E00040E0000040E0200040E0400040E0600040E0800040E0A00040E0C00040E0E00080000000800020008000400080006000800080008000A0008000C0008000E00080200000802020008020400080206000802080008020A0008020C0008020E00080400000804020008040400080406000804080
310
008040A0008040C0008040E00080600000806020008060400080606000806080008060A0008060C0008060E00080800000808020008080400080806000808080008080A0008080C0008080E00080A0000080A0200080A0400080A0600080A0800080A0A00080A0C00080A0E00080C0000080C0200080C0400080C0600080C0
310
800080C0A00080C0C00080C0E00080E0000080E0200080E0400080E0600080E0800080E0A00080E0C00080E0E000C0000000C0002000C0004000C0006000C0008000C000A000C000C000C000E000C0200000C0202000C0204000C0206000C0208000C020A000C020C000C020E000C0400000C0402000C0404000C0406000C0
310
408000C040A000C040C000C040E000C0600000C0602000C0604000C0606000C0608000C060A000C060C000C060E000C0800000C0802000C0804000C0806000C0808000C080A000C080C000C080E000C0A00000C0A02000C0A04000C0A06000C0A08000C0A0A000C0A0C000C0A0E000C0C00000C0C02000C0C04000C0C06000
310
C0C08000C0C0A000F0FBFF00A4A0A000808080000000FF0000FF000000FFFF00FF000000FF00FF00FFFF0000FFFFFF000606060606060606060606060606060606060606060606060606060606060606060606060606060606F9F9F9F9F9F9F9F9F9F9F9F90606060606060606060606060606060606060606F90606060606
310
0606060606F90606060606060606060606060606060606060606F906060606060606060606F90606060606060606060606060606060606060606F906060606060606060606F90606060606060606060606060606060606060606F906060606060606060606F90606060606060606060606060606060606060606F906060606
310
060606060606F90606060606060606060606060606060606060606F906060606060606060606F90606060606060606060606060606060606060606F906060606060606060606F90606060606060606060606060606060606060606F906060606060606060606F90606060606060606060606060606060606060606F9060606
310
06060606060606FFFFFFFFFF06060606060606060606060606060606F906060606060606060606FFFFFF06FF06060606060606060606060606060606F906060606060606060606FFFFFF06FF06060606060606060606060606060606F9060606FFFFFFFFFFFFFFFF06FF06FF06060606060606060606060606060606FFFFFF
310
FFFF060606060606FF06FF06FF06060606060606060606060606060606FF060606FF060606060606FF06FF06FF06060606060606060606060606060606FF060606FF060606060606FF06FF06FF06060606060606060606060606060606FF060606FF060606060606FF06FF06FF060606060606060606060606060606FFFFFF
310
FFFFFFFFFFFFFFFFFFFF06FF06FF0606060606060606060606060606FFFFFF06060606060606060606FF06FF06FF0606060606060606060606FEFEFFFEFFFFFEFEFEFEFEFEFEFEFEFEFFFEFFFEFFFEFEFE0606060606060606060606FFFFFF06060606060606060606FF06FF06FF060606060606060606060606060606FFFF
310
FFFFFFFFFFFFFFFFFFFFFF06FF06FF06060606060606060606060606060606FF060606FF060606060606FF06FF06FF06060606060606060606060606060606FF060606FF060606060606FF06FF06FF06060606060606060606060606060606FF060606FF060606060606FF06FF06FF06060606060606060606060606060606
310
FFFFFFFFFF060606060606FF06FF06FF0606060606060606060606060606060606060606FFFFFFFFFFFFFFFF06FF06FF060606060606060606060606060606060606060606060606060606FF06FF06FF060606060606060606060606060606060606060606060606060606FF06FF06FF060606060606060606060606060606
310
060606060606060606060606FFFFFFFFFF060606060606060606060606060606060606060606060606060606060606060606060606060606
102
{BLKREFS
331
131E
102
}
1001
ACAD
1000
DesignCenter Data
1002
{
1070
     1
1070
     4
1002
}
  0
BLOCK_RECORD
  5
A27
330
1
100
AcDbSymbolTableRecord
100
AcDbBlockTableRecord
  2
d31 d4p5 door drilling
340
0
102
{BLKREFS
331
A92
102
}
  0
BLOCK_RECORD
  5
A98
330
1
100
AcDbSymbolTableRecord
100
AcDbBlockTableRecord
  2
*D14
340
0
  0
BLOCK_RECORD
  5
AA1
330
1
100
AcDbSymbolTableRecord
100
AcDbBlockTableRecord
  2
*D15
340
0
  0
BLOCK_RECORD
  5
AAA
330
1
100
AcDbSymbolTableRecord
100
AcDbBlockTableRecord
  2
*D16
340
0
  0
BLOCK_RECORD
  5
AB6
330
1
100
AcDbSymbolTableRecord
100
AcDbBlockTableRecord
  2
*D17
340
0
  0
BLOCK_RECORD
  5
ECE
330
1
100
AcDbSymbolTableRecord
100
AcDbBlockTableRecord
  2
*D18
340
0
  0
BLOCK_RECORD
  5
F0F
330
1
100
AcDbSymbolTableRecord
100
AcDbBlockTableRecord
  2
*D19
340
0
  0
BLOCK_RECORD
  5
F50
330
1
100
AcDbSymbolTableRecord
100
AcDbBlockTableRecord
  2
*D20
340
0
  0
BLOCK_RECORD
  5
F91
330
1
100
AcDbSymbolTableRecord
100
AcDbBlockTableRecord
  2
*D21
340
0
  0
BLOCK_RECORD
  5
FD2
330
1
100
AcDbSymbolTableRecord
100
AcDbBlockTableRecord
  2
*D22
340
0
  0
BLOCK_RECORD
  5
1015
330
1
100
AcDbSymbolTableRecord
100
AcDbBlockTableRecord
  2
*D23
340
0
  0
BLOCK_RECORD
  5
1056
330
1
100
AcDbSymbolTableRecord
100
AcDbBlockTableRecord
  2
*D24
340
0
  0
BLOCK_RECORD
  5
10A1
330
1
100
AcDbSymbolTableRecord
100
AcDbBlockTableRecord
  2
*D25
340
0
  0
BLOCK_RECORD
  5
10EB
330
1
100
AcDbSymbolTableRecord
100
AcDbBlockTableRecord
  2
*D26
340
0
  0
BLOCK_RECORD
  5
1134
330
1
100
AcDbSymbolTableRecord
100
AcDbBlockTableRecord
  2
*D27
340
0
  0
BLOCK_RECORD
  5
1175
330
1
100
AcDbSymbolTableRecord
100
AcDbBlockTableRecord
  2
*D28
340
0
  0
BLOCK_RECORD
  5
11B6
330
1
100
AcDbSymbolTableRecord
100
AcDbBlockTableRecord
  2
*D29
340
0
  0
BLOCK_RECORD
  5
11F0
330
1
100
AcDbSymbolTableRecord
100
AcDbBlockTableRecord
  2
*D30
340
0
  0
BLOCK_RECORD
  5
1238
330
1
100
AcDbSymbolTableRecord
100
AcDbBlockTableRecord
  2
*D31
340
0
  0
BLOCK_RECORD
  5
129B
330
1
100
AcDbSymbolTableRecord
100
AcDbBlockTableRecord
  2
38613004 basic device back
340
0
310
2800000020000000200000000100080000000000000400000000000000000000000000000000000000000000000080000080000000808000800000008000800080800000C0C0C000C0DCC000F0CAA6000020400000206000002080000020A0000020C0000020E00000400000004020000040400000406000004080000040A0
310
000040C0000040E00000600000006020000060400000606000006080000060A0000060C0000060E00000800000008020000080400000806000008080000080A0000080C0000080E00000A0000000A0200000A0400000A0600000A0800000A0A00000A0C00000A0E00000C0000000C0200000C0400000C0600000C0800000C0
310
A00000C0C00000C0E00000E0000000E0200000E0400000E0600000E0800000E0A00000E0C00000E0E00040000000400020004000400040006000400080004000A0004000C0004000E00040200000402020004020400040206000402080004020A0004020C0004020E000404000004040200040404000404060004040800040
310
40A0004040C0004040E00040600000406020004060400040606000406080004060A0004060C0004060E00040800000408020004080400040806000408080004080A0004080C0004080E00040A0000040A0200040A0400040A0600040A0800040A0A00040A0C00040A0E00040C0000040C0200040C0400040C0600040C08000
310
40C0A00040C0C00040C0E00040E0000040E0200040E0400040E0600040E0800040E0A00040E0C00040E0E00080000000800020008000400080006000800080008000A0008000C0008000E00080200000802020008020400080206000802080008020A0008020C0008020E00080400000804020008040400080406000804080
310
008040A0008040C0008040E00080600000806020008060400080606000806080008060A0008060C0008060E00080800000808020008080400080806000808080008080A0008080C0008080E00080A0000080A0200080A0400080A0600080A0800080A0A00080A0C00080A0E00080C0000080C0200080C0400080C0600080C0
310
800080C0A00080C0C00080C0E00080E0000080E0200080E0400080E0600080E0800080E0A00080E0C00080E0E000C0000000C0002000C0004000C0006000C0008000C000A000C000C000C000E000C0200000C0202000C0204000C0206000C0208000C020A000C020C000C020E000C0400000C0402000C0404000C0406000C0
310
408000C040A000C040C000C040E000C0600000C0602000C0604000C0606000C0608000C060A000C060C000C060E000C0800000C0802000C0804000C0806000C0808000C080A000C080C000C080E000C0A00000C0A02000C0A04000C0A06000C0A08000C0A0A000C0A0C000C0A0E000C0C00000C0C02000C0C04000C0C06000
310
C0C08000C0C0A000F0FBFF00A4A0A000808080000000FF0000FF000000FFFF00FF000000FF00FF00FFFF0000FFFFFF000606060606060606060606060606060606060606060606060606060606060606060606060606060606060606060606060606060606060606060606060606060606FFFFFFFFFFFCFFFFFFFFFFFFFF06
310
060606060606060606060606060606060606FFFF0606FFFC0606FFFF0606FF27272706060606060606060606060606060606FFFF0606FFFC0606FFFF0606FF06062727272706060606060606060606060606FFFF0606FFFF0606FFFF0606FF06062706062706060606060606060606060606FFFFFFFFFFFFFFFFFFFFFFFFFF
310
06062706062706060606060606060606060606FFFFFFFFFFFFFFFFFFFFFFFFFF06062706062706060606060606060606060606FFFFFFFFFFFFFFFFFFFFFFFFFF06062706272706060606060606060606060606FFFFFFFFFFFFFFFFFFFFFFFFFF2727FE06272706060606060606060606060606FFFFFFFFFFFFFFFFFFFFFFFF
310
FF0606FE06272706060606060606060606060606FFFFFFFFFFFFFFFFFFFFFFFFFF2727FE27272706060606060606060606060606FD06FDFDFC06FDFDFC06FDFDFD0606FE06060606060606060606060606060606FD06FDFDFC06FDFDFC06FDFDFD0606FE06060606060606060606060606060606FD06FDFDFC06FDFDFC06FD
310
FDFD06060606060606060606060606060606060606FDFDFDFDFCFDFDFDFCFDFDFDFD06060606060606060606060606060606060606FDFDFDFDFDFDFDFDFDFDFDFDFD060606060606060606060606060606060606060606FDFD0606FDFD0606FDFD060606060606060606060606060606060606060606060606060606060606
310
06060606060606060606060606060606060606060606060606060606060606060606060606FE06060606060606060606060606060606060606060606060606060606FFFFFFFEFFFFFFFF060606060606060606060606060606060606060606060606FFFFFFFEFFFFFFFF060606060606060606060606060606060606060606
310
060606FFFFFFFEFFFFFF0606060606060606060606060606060606060606060606060606FF06FEF906FFFFFFFFFFFFFFFFFFFFFFFF060606060606060606060606060606FF06FEF906FF06060606060606060606FF060606060606060606060606060606FFFFFEF9FFFF06060606060606060606FF06060606060606060606
310
0606060606FFFFFEF9FFFF06060606060606060606FF060606060606060606060606060606FFFFFEF9FFFFFFFFFFFFFFFFFFFFFFFFFF06060606060606060606060606060606FFFE06060606060606060606060606060606060606060606060606060606060606FE0606060606060606060606060606060606060606060606
310
0606060606060606060606060606060606060606060606060606060606060606060606060606060606060606060606060606060606060606
102
{BLKREFS
331
12BC
102
}
1001
ACAD
1000
DesignCenter Data
1002
{
1070
     1
1070
     4
1002
}
  0
BLOCK_RECORD
  5
12BD
330
1
100
AcDbSymbolTableRecord
100
AcDbBlockTableRecord
  2
38613004 basic device front
340
0
310
2800000020000000200000000100080000000000000400000000000000000000000000000000000000000000000080000080000000808000800000008000800080800000C0C0C000C0DCC000F0CAA6000020400000206000002080000020A0000020C0000020E00000400000004020000040400000406000004080000040A0
310
000040C0000040E00000600000006020000060400000606000006080000060A0000060C0000060E00000800000008020000080400000806000008080000080A0000080C0000080E00000A0000000A0200000A0400000A0600000A0800000A0A00000A0C00000A0E00000C0000000C0200000C0400000C0600000C0800000C0
310
A00000C0C00000C0E00000E0000000E0200000E0400000E0600000E0800000E0A00000E0C00000E0E00040000000400020004000400040006000400080004000A0004000C0004000E00040200000402020004020400040206000402080004020A0004020C0004020E000404000004040200040404000404060004040800040
310
40A0004040C0004040E00040600000406020004060400040606000406080004060A0004060C0004060E00040800000408020004080400040806000408080004080A0004080C0004080E00040A0000040A0200040A0400040A0600040A0800040A0A00040A0C00040A0E00040C0000040C0200040C0400040C0600040C08000
310
40C0A00040C0C00040C0E00040E0000040E0200040E0400040E0600040E0800040E0A00040E0C00040E0E00080000000800020008000400080006000800080008000A0008000C0008000E00080200000802020008020400080206000802080008020A0008020C0008020E00080400000804020008040400080406000804080
310
008040A0008040C0008040E00080600000806020008060400080606000806080008060A0008060C0008060E00080800000808020008080400080806000808080008080A0008080C0008080E00080A0000080A0200080A0400080A0600080A0800080A0A00080A0C00080A0E00080C0000080C0200080C0400080C0600080C0
310
800080C0A00080C0C00080C0E00080E0000080E0200080E0400080E0600080E0800080E0A00080E0C00080E0E000C0000000C0002000C0004000C0006000C0008000C000A000C000C000C000E000C0200000C0202000C0204000C0206000C0208000C020A000C020C000C020E000C0400000C0402000C0404000C0406000C0
310
408000C040A000C040C000C040E000C0600000C0602000C0604000C0606000C0608000C060A000C060C000C060E000C0800000C0802000C0804000C0806000C0808000C080A000C080C000C080E000C0A00000C0A02000C0A04000C0A06000C0A08000C0A0A000C0A0C000C0A0E000C0C00000C0C02000C0C04000C0C06000
310
C0C08000C0C0A000F0FBFF00A4A0A000808080000000FF0000FF000000FFFF00FF000000FF00FF00FFFF0000FFFFFF0006060606060606060606060606060606060606060606060606060606060606060606060606060606060606060606060606060606060606060606060606060606060606060606060606060606060606
310
0606060606060606060606060606060606060606060606060606060606060606060606060606060606060606060606060606060606060606060606060606060606060606060606060606060606060606060606060606060606060606060606060606060606060606060606060606060606060606060606060606FE06060606
310
060606060606060606060606060606060606060606060606060606FEF9060606060606060606060606060606060606060606060606060606060606FEF9060606060606060606060606060606060606060606060606060606060606FEF906060606060606060606060606060606060606060606FFFEFFFEFCFCFD2727F90606
310
0606060606060606060606060606060606060606FFFEFFFDFCFCFD2727F906060606060606060606060606060606060606060606FFFEFFFDFCFCFD272727FF060606060606060606060606060606060606060606FF06FFFDFCFCFD272727FFFFFFFFFFFF06060606060606060606060606060606FF06FFFDFCFCFD272727FF
310
FFFFFFFFFFFE060606060606060606060606060606FFFEFFFDFCFCFD272727FF060606060606060606060606060606060606060606FFFFFFFDFCFCFD2727FFFF060606060606060606060606060606060606060606FFFFFFF9F9F9FD272706060606060606060606060606060606060606060606060606FCFCFCFC06060606
310
06060606060606060606060606060606060606060606060606060606060606060606060606060606060606060606060606060606060606060606060606060606060606060606060606060606060606060606060606060606060606060606060606060606060606060606060606060606060606060606060606060606060606
310
06060606060606060606060606060606060606060606060606060606060606060606060606060606060606060606060606060606060606060606060606060606060606060606060606060606060606060606060606060606060606060606060606060606060606060606060606060606060606060606060606060606060606
310
06060606060606060606060606060606060606060606060606060606060606060606060606060606060606060606060606060606060606060606060606060606060606060606060606060606060606060606060606060606060606060606060606060606060606060606060606060606060606060606060606060606060606
310
0606060606060606060606060606060606060606060606060606060606060606060606060606060606060606060606060606060606060606
102
{BLKREFS
331
1318
102
}
1001
ACAD
1000
DesignCenter Data
1002
{
1070
     1
1070
     4
1002
}
  0
BLOCK_RECORD
  5
1319
330
1
100
AcDbSymbolTableRecord
100
AcDbBlockTableRecord
  2
38613004 basic device right
340
0
310
2800000020000000200000000100080000000000000400000000000000000000000000000000000000000000000080000080000000808000800000008000800080800000C0C0C000C0DCC000F0CAA6000020400000206000002080000020A0000020C0000020E00000400000004020000040400000406000004080000040A0
310
000040C0000040E00000600000006020000060400000606000006080000060A0000060C0000060E00000800000008020000080400000806000008080000080A0000080C0000080E00000A0000000A0200000A0400000A0600000A0800000A0A00000A0C00000A0E00000C0000000C0200000C0400000C0600000C0800000C0
310
A00000C0C00000C0E00000E0000000E0200000E0400000E0600000E0800000E0A00000E0C00000E0E00040000000400020004000400040006000400080004000A0004000C0004000E00040200000402020004020400040206000402080004020A0004020C0004020E000404000004040200040404000404060004040800040
310
40A0004040C0004040E00040600000406020004060400040606000406080004060A0004060C0004060E00040800000408020004080400040806000408080004080A0004080C0004080E00040A0000040A0200040A0400040A0600040A0800040A0A00040A0C00040A0E00040C0000040C0200040C0400040C0600040C08000
310
40C0A00040C0C00040C0E00040E0000040E0200040E0400040E0600040E0800040E0A00040E0C00040E0E00080000000800020008000400080006000800080008000A0008000C0008000E00080200000802020008020400080206000802080008020A0008020C0008020E00080400000804020008040400080406000804080
310
008040A0008040C0008040E00080600000806020008060400080606000806080008060A0008060C0008060E00080800000808020008080400080806000808080008080A0008080C0008080E00080A0000080A0200080A0400080A0600080A0800080A0A00080A0C00080A0E00080C0000080C0200080C0400080C0600080C0
310
800080C0A00080C0C00080C0E00080E0000080E0200080E0400080E0600080E0800080E0A00080E0C00080E0E000C0000000C0002000C0004000C0006000C0008000C000A000C000C000C000E000C0200000C0202000C0204000C0206000C0208000C020A000C020C000C020E000C0400000C0402000C0404000C0406000C0
310
408000C040A000C040C000C040E000C0600000C0602000C0604000C0606000C0608000C060A000C060C000C060E000C0800000C0802000C0804000C0806000C0808000C080A000C080C000C080E000C0A00000C0A02000C0A04000C0A06000C0A08000C0A0A000C0A0C000C0A0E000C0C00000C0C02000C0C04000C0C06000
310
C0C08000C0C0A000F0FBFF00A4A0A000808080000000FF0000FF000000FFFF00FF000000FF00FF00FFFF0000FFFFFF0006060606060606060606060606060606060606060606060606060606060606060606060606060606060606060606060606060606060606060606060606060606060606060606060606060606060606
310
06060606060606060606060606060606060606060606060606060606060606060606060606060606060606060606060606060606F9F9F9F9F9060606060606060606060606060606060606060606060606060606F9060606F9060606060606060606060606060606060606060606060606060606F9060606F9060606060606
310
060606060606060606060606060606060606060606F9060606F9060606060606060606060606060606060606060606060606060606F9060606F9060606060606060606060606060606060606060606060606060606F9060606F9060606060606060606060606060606060606060606060606060606F9060606F90606060606
310
0606060606060606060606060606FCFCFC0606060606F9060606F906060606060606060606060606FE0606060606FEFEFEFE06060606F9060606F90606060606060606FCFCFCFCFCFCFCFCFCFCFCFCFFFC0606060606F9060606F90606060606060606FC0606FFFF0606272727FFFF27FC0606060606F9060606F9FFFFFF06
310
060606FCFD0606FFFFFFFFFFFFFFFF0627FC0606060606F906FFFFFFFFFFFF0606FDFDFCFD0606FFFD2727272727272727FC0606060606FFFFFF0606FFFFFF0606FDFDFC060606FFFD27272706272706FFFC0606060606FFFFFFFFFFFFFFFF0606FDFDFC060606FFFD27272706060606FFFC060606FEFEFEFEFEFEFEFEFEFE
310
FE06FDFDFC060606FFFFFEFE27FEFEFEFEFFFC0606060606FFFFFFFFFFFFFFFF0606FDFDFC060606FFFF27272706062706FFFC0606060606FF06FF0606FFFFFF0606FDFDFC060606FFFD27272727060606FFFC0606060606FFFFFFFFFFFFFFFF0606FDFDFC060606FFFD2706272727060627FC06060606060606060606FFFF
310
FF0606FDFDFCFD0606FFFD2727272727272727FC0606060606060606060606060606060606FCFD0606FFFFFFFFFFFFFFFF0627FC060606060606060606060606060606060606FC0606FFFFFE06062727FF2727FC060606060606060606060606060606060606FCFCFCFCFCFCFCFCFCFCFCFCFFFC0606060606060606060606
310
060606060606060606060606060606060606FEFEFEFE06060606060606060606060606060606060606060606060606060606FCFCFC0606060606060606060606060606060606060606060606060606060606060606060606060606060606060606060606060606060606060606060606060606060606060606060606060606
310
0606060606060606060606060606060606060606060606060606060606060606060606060606060606060606060606060606060606060606
102
{BLKREFS
331
1333
102
}
1001
ACAD
1000
DesignCenter Data
1002
{
1070
     1
1070
     4
1002
}
  0
BLOCK_RECORD
  5
1339
330
1
100
AcDbSymbolTableRecord
100
AcDbBlockTableRecord
  2
REFERENCE
340
0
102
{BLKREFS
331
134B
331
1373
102
}
  0
BLOCK_RECORD
  5
145C
330
1
100
AcDbSymbolTableRecord
100
AcDbBlockTableRecord
  2
56a463 module 1 pole 30A J right
340
0
310
2800000020000000200000000100080000000000000400000000000000000000000000000000000000000000000080000080000000808000800000008000800080800000C0C0C000C0DCC000F0CAA6000020400000206000002080000020A0000020C0000020E00000400000004020000040400000406000004080000040A0
310
000040C0000040E00000600000006020000060400000606000006080000060A0000060C0000060E00000800000008020000080400000806000008080000080A0000080C0000080E00000A0000000A0200000A0400000A0600000A0800000A0A00000A0C00000A0E00000C0000000C0200000C0400000C0600000C0800000C0
310
A00000C0C00000C0E00000E0000000E0200000E0400000E0600000E0800000E0A00000E0C00000E0E00040000000400020004000400040006000400080004000A0004000C0004000E00040200000402020004020400040206000402080004020A0004020C0004020E000404000004040200040404000404060004040800040
310
40A0004040C0004040E00040600000406020004060400040606000406080004060A0004060C0004060E00040800000408020004080400040806000408080004080A0004080C0004080E00040A0000040A0200040A0400040A0600040A0800040A0A00040A0C00040A0E00040C0000040C0200040C0400040C0600040C08000
310
40C0A00040C0C00040C0E00040E0000040E0200040E0400040E0600040E0800040E0A00040E0C00040E0E00080000000800020008000400080006000800080008000A0008000C0008000E00080200000802020008020400080206000802080008020A0008020C0008020E00080400000804020008040400080406000804080
310
008040A0008040C0008040E00080600000806020008060400080606000806080008060A0008060C0008060E00080800000808020008080400080806000808080008080A0008080C0008080E00080A0000080A0200080A0400080A0600080A0800080A0A00080A0C00080A0E00080C0000080C0200080C0400080C0600080C0
310
800080C0A00080C0C00080C0E00080E0000080E0200080E0400080E0600080E0800080E0A00080E0C00080E0E000C0000000C0002000C0004000C0006000C0008000C000A000C000C000C000E000C0200000C0202000C0204000C0206000C0208000C020A000C020C000C020E000C0400000C0402000C0404000C0406000C0
310
408000C040A000C040C000C040E000C0600000C0602000C0604000C0606000C0608000C060A000C060C000C060E000C0800000C0802000C0804000C0806000C0808000C080A000C080C000C080E000C0A00000C0A02000C0A04000C0A06000C0A08000C0A0A000C0A0C000C0A0E000C0C00000C0C02000C0C04000C0C06000
310
C0C08000C0C0A000F0FBFF00A4A0A000808080000000FF0000FF000000FFFF00FF000000FF00FF00FFFF0000FFFFFF0006060606060606060606060606060606060606060606060606060606060606060606060606060606060606FFFFFF060606060606060606060606060606060606060606060606FFFFFFFFFFFFFFFFFF
310
FF06060606060606060606060606060606060606060606FFFFFF060606FFFF06FFFFFFFFFFFFFFFFFFFFFF060606060606060606060606FFFF060606060606060606060606FFFFFF0606FF060606060606060606060606FF06060606060606060606060606FF06060606FF060606060606060606060606FFFFFFFFFFFFFFFF
310
FFFFFFFFFFFFFF06060606FF060606060606060606060606FF06060606060606FFFF060606060606060606FF060606060606060606060606FF06060606060606FF06060606060606060606FF060606060606060606060606FF06060606060606060606FFFF060606060606FF060606060606060606060606FF060606060606
310
06060606FF06060606060606FF060606060606060606060606FF0606FF060606FFFFFFFFFFFFFFFFFFFF06FFFF060606060606060606060606FF0606FFFF0606FF0606060606060606FF06FF06060606060606060606060606FF0606FF060606FF060606FE06060606FF06FF06060606060606060606060606FF0606060606
310
06FF060606FF06060606FF06FF06060606060606060606060606FF060606060606FF06FFFFFEFFFFFE06FFFFFF06060606060606060606060606FF060606060606FF0606FFFEFF060606FF06FF27060606060606060606060606FF060606060606FF060606FE06060606FF06FF06060606060606060606060606FF0606FF06
310
0606FF060606FE06060606FF06FF06060606060606060606060606FF0606FFFF0606FF0606060606060606FF06FF06060606060606060606060606FF0606FF060606FFFFFFFFFFFFFFFFFFFF06FFFF060606060606060606060606FF06060606060606060606FF06060606060606FF060606060606060606060606FF060606
310
06060606060606FFFF060606060606FF060606060606060606060606FF06060606060606FF06060606060606060606FF060606060606060606060606FF06060606060606FFFF060606060606060606FF060606060606060606060606FFFFFFFFFFFFFFFFFFFFFFFFFFFFFF06060606FF060606060606060606060606FF0606
310
0606060606060606060606FF06060606FF060606060606060606060606FFFF060606060606060606060606FFFFFF0606FF060606060606060606060606FFFFFF060606FFFF06FFFFFFFFFFFFFFFFFFFFFF060606060606060606060606FFFFFFFFFFFFFFFFFFFF060606060606060606060606060606060606060606060606
310
060606FFFFFF0606060606060606060606060606060606060606060606060606060606060606060606060606060606060606060606060606
102
{BLKREFS
331
149F
102
}
1001
ACAD
1000
DesignCenter Data
1002
{
1070
     1
1070
     4
1002
}
  0
BLOCK_RECORD
  5
14D6
330
1
100
AcDbSymbolTableRecord
100
AcDbBlockTableRecord
  2
528008+528009 assembly back
340
0
310
2800000020000000200000000100080000000000000400000000000000000000000000000000000000000000000080000080000000808000800000008000800080800000C0C0C000C0DCC000F0CAA6000020400000206000002080000020A0000020C0000020E00000400000004020000040400000406000004080000040A0
310
000040C0000040E00000600000006020000060400000606000006080000060A0000060C0000060E00000800000008020000080400000806000008080000080A0000080C0000080E00000A0000000A0200000A0400000A0600000A0800000A0A00000A0C00000A0E00000C0000000C0200000C0400000C0600000C0800000C0
310
A00000C0C00000C0E00000E0000000E0200000E0400000E0600000E0800000E0A00000E0C00000E0E00040000000400020004000400040006000400080004000A0004000C0004000E00040200000402020004020400040206000402080004020A0004020C0004020E000404000004040200040404000404060004040800040
310
40A0004040C0004040E00040600000406020004060400040606000406080004060A0004060C0004060E00040800000408020004080400040806000408080004080A0004080C0004080E00040A0000040A0200040A0400040A0600040A0800040A0A00040A0C00040A0E00040C0000040C0200040C0400040C0600040C08000
310
40C0A00040C0C00040C0E00040E0000040E0200040E0400040E0600040E0800040E0A00040E0C00040E0E00080000000800020008000400080006000800080008000A0008000C0008000E00080200000802020008020400080206000802080008020A0008020C0008020E00080400000804020008040400080406000804080
310
008040A0008040C0008040E00080600000806020008060400080606000806080008060A0008060C0008060E00080800000808020008080400080806000808080008080A0008080C0008080E00080A0000080A0200080A0400080A0600080A0800080A0A00080A0C00080A0E00080C0000080C0200080C0400080C0600080C0
310
800080C0A00080C0C00080C0E00080E0000080E0200080E0400080E0600080E0800080E0A00080E0C00080E0E000C0000000C0002000C0004000C0006000C0008000C000A000C000C000C000E000C0200000C0202000C0204000C0206000C0208000C020A000C020C000C020E000C0400000C0402000C0404000C0406000C0
310
408000C040A000C040C000C040E000C0600000C0602000C0604000C0606000C0608000C060A000C060C000C060E000C0800000C0802000C0804000C0806000C0808000C080A000C080C000C080E000C0A00000C0A02000C0A04000C0A06000C0A08000C0A0A000C0A0C000C0A0E000C0C00000C0C02000C0C04000C0C06000
310
C0C08000C0C0A000F0FBFF00A4A0A000808080000000FF0000FF000000FFFF00FF000000FF00FF00FFFF0000FFFFFF00060606060606060606060606060606060606060606060606060606060606060606060606060606060606FFFFFFFFFFFFFFFFFFFFFFFF0606060606060606060606060606060606060606FF06060606
310
FFFF06060606FF0606060606060606060606060606060606060606FF0606FFFFFFFF06060606FF0606060606060606060606060606060606060606FF0606FF0606FF06060606FF0606060606060606060606060606060606060606FF0606FF0606FF06060606FF0606060606060606060606060606060606060606FF0606FF
310
0606FF06060606FF0606060606060606060606060606060606060606FF0606FFFFFFFF06060606FF0606060606060606060606060606060606060606FF06060606FFFF06060606FF0606060606060606060606060606060606060606FF06060606FFFF06060606FF0606060606060606060606060606060606060606FF0606
310
0606FFFF06060606FF0606060606060606060606060606060606060606FF06060606FFFF06060606FF0606060606060606060606060606060606060606FF06060606FFFF06060606FF0606060606060606060606060606060606060606FF06060606FFFF06060606FF0606060606060606060606060606060606060606FF06
310
060606FFFF06060606FF0606060606060606060606060606060606060606FF06060606FFFF06060606FF0606060606060606060606060606060606060606FF06060606FFFF06060606FF0606060606060606060606060606060606060606FF06060606FFFF06060606FF0606060606060606060606060606060606060606FF
310
06060606FFFF06060606FF0606060606060606060606060606060606060606FF06060606FFFF06060606FF0606060606060606060606060606060606060606FFFFFFFFFFFFFFFFFFFFFFFF0606060606060606060606060606060606060606FF06060606FFFF06060606FF0606060606060606060606060606060606060606
310
FF06060606FFFF06060606FF0606060606060606060606060606060606060606FF06060606FFFF06060606FF0606060606060606060606060606060606060606FF06060606FFFF06060606FF0606060606060606060606060606060606060606FFFFFFFFFFFFFFFFFFFFFFFF06060606060606060606060606060606060606
310
0606FFFFFFFFFFFFFFFFFFFF06060606060606060606060606060606060606060606FFFFFFFF0606FFFFFFFF060606060606060606060606060606060606060606060606FFFFFFFFFFFF0606060606060606060606060606060606060606060606060606FFFFFFFFFFFF060606060606060606060606060606060606060606
310
0606060606FF06060606FF060606060606060606060606060606060606060606060606060606060606060606060606060606060606060606
102
{BLKREFS
331
16F8
102
}
1001
ACAD
1000
DesignCenter Data
1002
{
1070
     1
1070
     4
1002
}
  0
BLOCK_RECORD
  5
14F3
330
1
100
AcDbSymbolTableRecord
100
AcDbBlockTableRecord
  2
doigt de commande right
340
0
310
2800000020000000200000000100080000000000000400000000000000000000000000000000000000000000000080000080000000808000800000008000800080800000C0C0C000C0DCC000F0CAA6000020400000206000002080000020A0000020C0000020E00000400000004020000040400000406000004080000040A0
310
000040C0000040E00000600000006020000060400000606000006080000060A0000060C0000060E00000800000008020000080400000806000008080000080A0000080C0000080E00000A0000000A0200000A0400000A0600000A0800000A0A00000A0C00000A0E00000C0000000C0200000C0400000C0600000C0800000C0
310
A00000C0C00000C0E00000E0000000E0200000E0400000E0600000E0800000E0A00000E0C00000E0E00040000000400020004000400040006000400080004000A0004000C0004000E00040200000402020004020400040206000402080004020A0004020C0004020E000404000004040200040404000404060004040800040
310
40A0004040C0004040E00040600000406020004060400040606000406080004060A0004060C0004060E00040800000408020004080400040806000408080004080A0004080C0004080E00040A0000040A0200040A0400040A0600040A0800040A0A00040A0C00040A0E00040C0000040C0200040C0400040C0600040C08000
310
40C0A00040C0C00040C0E00040E0000040E0200040E0400040E0600040E0800040E0A00040E0C00040E0E00080000000800020008000400080006000800080008000A0008000C0008000E00080200000802020008020400080206000802080008020A0008020C0008020E00080400000804020008040400080406000804080
310
008040A0008040C0008040E00080600000806020008060400080606000806080008060A0008060C0008060E00080800000808020008080400080806000808080008080A0008080C0008080E00080A0000080A0200080A0400080A0600080A0800080A0A00080A0C00080A0E00080C0000080C0200080C0400080C0600080C0
310
800080C0A00080C0C00080C0E00080E0000080E0200080E0400080E0600080E0800080E0A00080E0C00080E0E000C0000000C0002000C0004000C0006000C0008000C000A000C000C000C000E000C0200000C0202000C0204000C0206000C0208000C020A000C020C000C020E000C0400000C0402000C0404000C0406000C0
310
408000C040A000C040C000C040E000C0600000C0602000C0604000C0606000C0608000C060A000C060C000C060E000C0800000C0802000C0804000C0806000C0808000C080A000C080C000C080E000C0A00000C0A02000C0A04000C0A06000C0A08000C0A0A000C0A0C000C0A0E000C0C00000C0C02000C0C04000C0C06000
310
C0C08000C0C0A000F0FBFF00A4A0A000808080000000FF0000FF000000FFFF00FF000000FF00FF00FFFF0000FFFFFF0006060606060606060606060606060606060606060606060606060606060606060606060606060606060606060606060606060606060606060606060606060606060606060606060606060606060606
310
06060606060606060606060606060606060606060606060606060606060606060606060606060606060606060606060606060606060606060606060606060606060606060606060606060606060606060606060606060606060606060606060606060606060606060606060606060606060606060606060606060606060606
310
060606060606060606060606060606060606060606060606060606060606060606060606060606060606060606060606060606060606060606060606060606060606060606060606060606060606060606060606060606060606060606060606060606060606060606060606060606060606060606060606060606FFFF0606
310
060606060606060606060606060606060606060606060606FFFFFF06FFFF0606060606060606060606060606060606060606060606060606FFFF06FFFFFF06060606060606060606060606060606060606060606060606FFFF060606FFFF06060606060606060606060606060606060606060606060606FFFFFFFFFFFFFFFF
310
06060606060606060606060606060606FE06060606060606FFFF060606FFFF0606060606060606060606060606060606FE06060606FEFEFEFFFEFEFEFEFFFFFEFEFEFEFEFEFEFEFEFEFEFEFEFEFEFEFEFCFCFE0606060606FF06060606FFFF0606060606060606060606060606060606FCFC060606060606FFFF060606FFFF
310
0606060606060606060606060606060606FE06060606060606FFFF060606FFFF0606060606060606060606060606060606FE0606060606060606FFFFFFFFFFFF060606060606060606060606060606060606060606060606060606060606FFFF06060606060606060606060606060606060606060606060606060606060606
310
06060606060606060606060606060606060606060606060606060606060606060606060606060606060606060606060606060606060606060606060606060606060606060606060606060606060606060606060606060606060606060606060606060606060606060606060606060606060606060606060606060606060606
310
06060606060606060606060606060606060606060606060606060606060606060606060606060606060606060606060606060606060606060606060606060606060606060606060606060606060606060606060606060606060606060606060606060606060606060606060606060606060606060606060606060606060606
310
0606060606060606060606060606060606060606060606060606060606060606060606060606060606060606060606060606060606060606
102
{BLKREFS
331
1631
102
}
1001
ACAD
1000
DesignCenter Data
1002
{
1070
     1
1070
     4
1002
}
  0
BLOCK_RECORD
  5
15DC
330
1
100
AcDbSymbolTableRecord
100
AcDbBlockTableRecord
  2
528009 cage commande right
340
0
310
2800000020000000200000000100080000000000000400000000000000000000000000000000000000000000000080000080000000808000800000008000800080800000C0C0C000C0DCC000F0CAA6000020400000206000002080000020A0000020C0000020E00000400000004020000040400000406000004080000040A0
310
000040C0000040E00000600000006020000060400000606000006080000060A0000060C0000060E00000800000008020000080400000806000008080000080A0000080C0000080E00000A0000000A0200000A0400000A0600000A0800000A0A00000A0C00000A0E00000C0000000C0200000C0400000C0600000C0800000C0
310
A00000C0C00000C0E00000E0000000E0200000E0400000E0600000E0800000E0A00000E0C00000E0E00040000000400020004000400040006000400080004000A0004000C0004000E00040200000402020004020400040206000402080004020A0004020C0004020E000404000004040200040404000404060004040800040
310
40A0004040C0004040E00040600000406020004060400040606000406080004060A0004060C0004060E00040800000408020004080400040806000408080004080A0004080C0004080E00040A0000040A0200040A0400040A0600040A0800040A0A00040A0C00040A0E00040C0000040C0200040C0400040C0600040C08000
310
40C0A00040C0C00040C0E00040E0000040E0200040E0400040E0600040E0800040E0A00040E0C00040E0E00080000000800020008000400080006000800080008000A0008000C0008000E00080200000802020008020400080206000802080008020A0008020C0008020E00080400000804020008040400080406000804080
310
008040A0008040C0008040E00080600000806020008060400080606000806080008060A0008060C0008060E00080800000808020008080400080806000808080008080A0008080C0008080E00080A0000080A0200080A0400080A0600080A0800080A0A00080A0C00080A0E00080C0000080C0200080C0400080C0600080C0
310
800080C0A00080C0C00080C0E00080E0000080E0200080E0400080E0600080E0800080E0A00080E0C00080E0E000C0000000C0002000C0004000C0006000C0008000C000A000C000C000C000E000C0200000C0202000C0204000C0206000C0208000C020A000C020C000C020E000C0400000C0402000C0404000C0406000C0
310
408000C040A000C040C000C040E000C0600000C0602000C0604000C0606000C0608000C060A000C060C000C060E000C0800000C0802000C0804000C0806000C0808000C080A000C080C000C080E000C0A00000C0A02000C0A04000C0A06000C0A08000C0A0A000C0A0C000C0A0E000C0C00000C0C02000C0C04000C0C06000
310
C0C08000C0C0A000F0FBFF00A4A0A000808080000000FF0000FF000000FFFF00FF000000FF00FF00FFFF0000FFFFFF000606060606060606060606060606060606060606060606060606060606060606060606060606060606FFFFFFFFFFFFFFFFFFFFFFFFFFFFFFFFFFFFFF06060606060606060606060606FF0606060606
310
060606060606060606060606FF06060606060606060606060606FF060606060606FFFF0606060606060606FFFF06060606060606060606060606FF0606060606060606060606060606060606FF06060606060606060606060606FF0606060606060606060606060606060606FF06060606060606060606060606FF06060606
310
0606FFFF060606060606060606FF06060606060606060606060606FF0606060606FF06FF060606060606060606FF06060606060606060606060606FFFF0606060606FFFF060606060606060606FF06060606060606060606060606FF0606060606060606060606060606060606FF06060606060606060606060606FF060606
310
0606060606060606060606060606FF06060606060606060606060606FF06FF06060606060606060606060606FFFFFF06060606060606060606FF06FFFF06FFFF060606060606060606060606FF060606060606060606060606FFFFFFFF06FF0606060606060606FE06060606FF0606060606060606060606FFFFFFFFFF0606
310
060606060606FFFFFEFF060606FF06060606060606060606FEFFFEFEFFFFFFFFFFFF060606FEFEFEFEFFFE0606FF0606060606060606060606FF0606FFFFFFFFFF0606060606FF06FEFF060606FF0606060606060606060606FFFFFFFFFF0606060606060606FFFFFEFF060606FF0606060606060606060606060606FFFF06
310
FF0606060606060606FE06060606FF06060606060606060606060606FFFFFF06FFFF060606060606060606060606FF06060606060606060606060606FFFFFF06FF06060606060606060606060606FFFFFF0606060606060606060606FFFFFF0606060606060606060606060606060606FF0606060606060606060606FF06FF
310
0606060606060606060606060606060606FF0606060606060606060606FFFFFFFF0606060606FFFF060606060606060606FF06060606060606060606060606FF0606060606FF06FF060606060606060606FF06060606060606060606060606FF060606060606FFFF060606060606060606FF0606060606060606060606FFFF
310
FF0606060606060606060606060606060606FF0606060606060606060606FF06FF0606060606060606060606060606060606FF0606060606060606060606FFFFFF060606060606FFFF0606060606060606FFFF0606060606060606060606FF06FF0606060606060606060606060606060606FF0606060606060606060606FF
310
FFFFFFFFFFFFFFFFFFFFFFFFFFFFFFFFFFFFFFFF060606060606060606060606060606060606060606060606060606060606060606060606
102
{BLKREFS
331
1735
102
}
1001
ACAD
1000
DesignCenter Data
1002
{
1070
     1
1070
     4
1002
}
  0
BLOCK_RECORD
  5
163C
330
1
100
AcDbSymbolTableRecord
100
AcDbBlockTableRecord
  2
528008+528009 assembly front
340
0
310
2800000020000000200000000100080000000000000400000000000000000000000000000000000000000000000080000080000000808000800000008000800080800000C0C0C000C0DCC000F0CAA6000020400000206000002080000020A0000020C0000020E00000400000004020000040400000406000004080000040A0
310
000040C0000040E00000600000006020000060400000606000006080000060A0000060C0000060E00000800000008020000080400000806000008080000080A0000080C0000080E00000A0000000A0200000A0400000A0600000A0800000A0A00000A0C00000A0E00000C0000000C0200000C0400000C0600000C0800000C0
310
A00000C0C00000C0E00000E0000000E0200000E0400000E0600000E0800000E0A00000E0C00000E0E00040000000400020004000400040006000400080004000A0004000C0004000E00040200000402020004020400040206000402080004020A0004020C0004020E000404000004040200040404000404060004040800040
310
40A0004040C0004040E00040600000406020004060400040606000406080004060A0004060C0004060E00040800000408020004080400040806000408080004080A0004080C0004080E00040A0000040A0200040A0400040A0600040A0800040A0A00040A0C00040A0E00040C0000040C0200040C0400040C0600040C08000
310
40C0A00040C0C00040C0E00040E0000040E0200040E0400040E0600040E0800040E0A00040E0C00040E0E00080000000800020008000400080006000800080008000A0008000C0008000E00080200000802020008020400080206000802080008020A0008020C0008020E00080400000804020008040400080406000804080
310
008040A0008040C0008040E00080600000806020008060400080606000806080008060A0008060C0008060E00080800000808020008080400080806000808080008080A0008080C0008080E00080A0000080A0200080A0400080A0600080A0800080A0A00080A0C00080A0E00080C0000080C0200080C0400080C0600080C0
310
800080C0A00080C0C00080C0E00080E0000080E0200080E0400080E0600080E0800080E0A00080E0C00080E0E000C0000000C0002000C0004000C0006000C0008000C000A000C000C000C000E000C0200000C0202000C0204000C0206000C0208000C020A000C020C000C020E000C0400000C0402000C0404000C0406000C0
310
408000C040A000C040C000C040E000C0600000C0602000C0604000C0606000C0608000C060A000C060C000C060E000C0800000C0802000C0804000C0806000C0808000C080A000C080C000C080E000C0A00000C0A02000C0A04000C0A06000C0A08000C0A0A000C0A0C000C0A0E000C0C00000C0C02000C0C04000C0C06000
310
C0C08000C0C0A000F0FBFF00A4A0A000808080000000FF0000FF000000FFFF00FF000000FF00FF00FFFF0000FFFFFF0000000000000000000000000000000000000000000000000000000000000000000000000000000000000000FFFFFFFFFFFFFFFFFFFF00000000000000000000000000000000000000000000FF000000
310
00FF000000FF00000000000000000000000000000000000000000000FF00000000FF000000FF00000000000000000000000000000000000000000000FF00000000FF000000FF00000000000000000000000000000000000000000000FF00000000FF000000FF00000000000000000000000000000000000000000000FF0000
310
0000FF000000FF00000000000000000000000000000000000000000000FF00000000FF000000FF00000000000000000000000000000000000000000000FF00000000FF000000FF00000000000000000000000000000000000000000000FF00000000FF000000FF00000000000000000000000000000000000000000000FF00
310
000000FF000000FF00000000000000000000000000000000000000000000FF00000000FF000000FF00000000000000000000000000000000000000000000FF00000000FF000000FF00000000000000000000000000000000000000000000FF00000000FE000000FF00000000000000000000000000000000000000000000FF
310
0000FFFFFE000000FF00000000000000000000000000000000000000000000FF00FEFFFEFEFFFE00FF00000000000000000000000000000000000000000000FF0000FF00FEFF0000FF00000000000000000000000000000000000000000000FF0000FFFFFE000000FF00000000000000000000000000000000000000000000
310
FF000000FFFE000000FF00000000000000000000000000000000000000000000FF0000FFFFFF000000FF00000000000000000000000000000000000000000000FFFFFFFF00FF000000FF00000000000000000000000000000000000000000000FFFFFFFFFFFF000000FF000000000000000000000000000000000000000000
310
00FFFFFFFFFFFF000000FF00000000000000000000000000000000000000000000FFFFFFFFFFFF000000FF00000000000000000000000000000000000000000000FFFFFFFF00FF000000FF00000000000000000000000000000000000000000000FFFFFFFF00FF000000FF0000000000000000000000000000000000000000
310
0000FFFFFFFFFFFF000000FF00000000000000000000000000000000000000000000FFFFFFFF00FF000000FF00000000000000000000000000000000000000000000FFFFFFFF00FF000000FF00000000000000000000000000000000000000000000FFFFFFFF00FF000000FF00000000000000000000000000000000000000
310
000000FFFFFFFFFFFFFFFFFFFF00000000000000000000000000000000000000000000000000000000000000000000000000000000000000
102
{BLKREFS
331
1723
102
}
1001
ACAD
1000
DesignCenter Data
1002
{
1070
     1
1070
     4
1002
}
  0
BLOCK_RECORD
  5
1699
330
1
100
AcDbSymbolTableRecord
100
AcDbBlockTableRecord
  2
*D41
340
0
  0
ENDTAB
  0
ENDSEC
  0
SECTION
  2
BLOCKS
  0
BLOCK
  5
20
330
1F
100
AcDbEntity
  8
0
100
AcDbBlockBegin
  2
*Model_Space
 70
     0
 10
0.0
 20
0.0
 30
0.0
  3
*Model_Space
  1

  0
ENDBLK
  5
21
330
1F
100
AcDbEntity
  8
0
100
AcDbBlockEnd
  0
BLOCK
  5
1C
330
1B
100
AcDbEntity
 67
     1
  8
0
100
AcDbBlockBegin
  2
*Paper_Space
 70
     0
 10
0.0
 20
0.0
 30
0.0
  3
*Paper_Space
  1

  0
ENDBLK
  5
1D
330
1B
100
AcDbEntity
 67
     1
  8
0
100
AcDbBlockEnd
  0
BLOCK
  5
24
330
23
100
AcDbEntity
  8
0
100
AcDbBlockBegin
  2
*Paper_Space0
 70
     0
 10
0.0
 20
0.0
 30
0.0
  3
*Paper_Space0
  1

  0
ENDBLK
  5
25
330
23
100
AcDbEntity
  8
0
100
AcDbBlockEnd
  0
BLOCK
  5
18BA
330
70
100
AcDbEntity
  8
0
100
AcDbBlockBegin
  2
GENAXEH
 70
     0
 10
0.0
 20
0.0
 30
0.0
  3
GENAXEH
  1

  0
LINE
  5
18BB
330
70
100
AcDbEntity
  8
0
100
AcDbLine
 10
-1.0
 20
0.0
 30
0.0
 11
1.0
 21
0.0
 31
0.0
  0
ENDBLK
  5
18BC
330
70
100
AcDbEntity
  8
0
100
AcDbBlockEnd
  0
BLOCK
  5
B7
330
7C
100
AcDbEntity
  8
0
100
AcDbBlockBegin
  2
56a463 module 1 pole 30A J back
 70
     0
 10
0.0
 20
0.0
 30
0.0
  3
56a463 module 1 pole 30A J back
  1

  0
LINE
  5
86
330
7C
100
AcDbEntity
  8
BASIC DEVICE
100
AcDbLine
 10
5.000000000016825
 20
47.50000000000727
 30
0.0
 11
31.0
 21
47.50000000001455
 31
0.0
  0
LINE
  5
88
330
7C
100
AcDbEntity
  8
BASIC DEVICE
100
AcDbLine
 10
5.000000000002273
 20
83.49999999999999
 30
0.0
 11
31.00000000000227
 21
83.49999999999999
 31
0.0
  0
LINE
  5
8C
330
7C
100
AcDbEntity
  8
BASIC DEVICE
100
AcDbLine
 10
5.000000000002273
 20
87.00000000000228
 30
0.0
 11
5.000000000002273
 21
0.0
 31
0.0
  0
LINE
  5
8D
330
7C
100
AcDbEntity
  8
BASIC DEVICE
100
AcDbLine
 10
0.0
 20
22.5
 30
0.0
 11
5.000000000002273
 21
22.5
 31
0.0
  0
LINE
  5
9A
330
7C
100
AcDbEntity
  8
BASIC DEVICE
100
AcDbLine
 10
0.0000000000009095
 20
45.99999999999818
 30
0.0
 11
0.0000000000009095
 21
52.99999999999818
 31
0.0
  0
LINE
  5
9E
330
7C
100
AcDbEntity
  8
BASIC DEVICE
100
AcDbLine
 10
31.00000000000227
 20
87.00000000000773
 30
0.0
 11
31.00000000000225
 21
0.0
 31
0.0
  0
LINE
  5
A8
330
7C
100
AcDbEntity
  8
BASIC DEVICE
100
AcDbLine
 10
31.00000000000225
 20
22.5
 30
0.0
 11
35.99999999999631
 21
22.5
 31
0.0
  0
LINE
  5
AD
330
7C
100
AcDbEntity
  8
BASIC DEVICE
100
AcDbLine
 10
18.00000000000864
 20
47.50000000001091
 30
0.0
 11
21.00000000000864
 21
47.50000000001091
 31
0.0
  0
LWPOLYLINE
  5
B6
330
7C
100
AcDbEntity
  8
BASIC DEVICE
100
AcDbPolyline
 90
        4
 70
     1
 43
0.0
 10
12.50000000000227
 20
76.50000000000102
 10
23.50000000000227
 20
76.50000000000102
 10
23.50000000000227
 20
72.50000000000103
 10
12.50000000000227
 20
72.50000000000103
1001
GENIUS_GENREC_14
1002
{
1000
PYDIR
1011
12.50000000000227
1021
72.50000000000103
1031
0.0
1002
}
1002
{
1000
PXDIR
1011
23.50000000000227
1021
76.50000000000102
1031
0.0
1002
}
1002
{
1000
PORI
1011
12.50000000000227
1021
76.50000000000102
1031
0.0
1002
}
1002
{
1000
PINS
1011
12.50000000000227
1021
76.50000000000102
1031
0.0
1002
}
1002
{
1000
PINS2
1011
23.50000000000227
1021
72.50000000000103
1031
0.0
1002
}
1002
{
1000
C
1070
     1
1002
}
1001
GENIUS_GENODEF_13
1002
{
1000
HIER
1070
     0
1002
}
1002
{
1000
MANEDIT
1070
     0
1002
}
1002
{
1000
NOSEL
1070
     0
1002
}
1002
{
1000
BEHIND
1070
     0
1002
}
1002
{
1000
REACTOR
1002
}
1001
GENIUS_GENOBJ-N-REC_13
1002
{
1000
OWNER
1000
GEN
1002
}
  0
LWPOLYLINE
  5
554
330
7C
100
AcDbEntity
  8
BASIC DEVICE
100
AcDbPolyline
 90
        4
 70
     1
 43
0.0
 10
3.0
 20
82.5
 10
5.000000000002273
 20
82.5
 10
5.000000000002273
 20
76.5
 10
3.0
 20
76.5
1001
GENIUS_GENREC_14
1002
{
1000
PYDIR
1011
3.0
1021
76.5
1031
0.0
1002
}
1002
{
1000
PXDIR
1011
5.000000000002273
1021
82.5
1031
0.0
1002
}
1002
{
1000
PORI
1011
3.0
1021
82.5
1031
0.0
1002
}
1002
{
1000
PINS
1011
3.0
1021
82.5
1031
0.0
1002
}
1002
{
1000
PINS2
1011
5.000000000002273
1021
76.5
1031
0.0
1002
}
1002
{
1000
C
1070
     1
1002
}
1001
GENIUS_GENODEF_13
1002
{
1000
HIER
1070
     0
1002
}
1002
{
1000
MANEDIT
1070
     0
1002
}
1002
{
1000
NOSEL
1070
     0
1002
}
1002
{
1000
BEHIND
1070
     0
1002
}
1002
{
1000
OTHER
1070
     0
1002
}
1002
{
1000
REACTOR
1002
}
1001
GENIUS_GENOBJ-N-REC_13
1002
{
1000
OWNER
1000
GEN
1002
}
  0
LWPOLYLINE
  5
555
330
7C
100
AcDbEntity
  8
BASIC DEVICE
100
AcDbPolyline
 90
        4
 70
     1
 43
0.0
 10
33.00000000000455
 20
82.5
 10
31.00000000000227
 20
82.5
 10
31.00000000000227
 20
76.5
 10
33.00000000000455
 20
76.5
1001
GENIUS_GENREC_14
1002
{
1000
PYDIR
1011
33.00000000000455
1021
76.5
1031
0.0
1002
}
1002
{
1000
PXDIR
1011
31.00000000000227
1021
82.5
1031
0.0
1002
}
1002
{
1000
PORI
1011
33.00000000000455
1021
82.5
1031
0.0
1002
}
1002
{
1000
PINS
1011
33.00000000000455
1021
82.5
1031
0.0
1002
}
1002
{
1000
PINS2
1011
31.00000000000227
1021
76.5
1031
0.0
1002
}
1002
{
1000
C
1070
     1
1002
}
1001
GENIUS_GENODEF_13
1002
{
1000
HIER
1070
     0
1002
}
1002
{
1000
MANEDIT
1070
     0
1002
}
1002
{
1000
NOSEL
1070
     0
1002
}
1002
{
1000
BEHIND
1070
     0
1002
}
1002
{
1000
OTHER
1070
     0
1002
}
1002
{
1000
REACTOR
1002
}
1001
GENIUS_GENOBJ-N-REC_13
1002
{
1000
OWNER
1000
GEN
1002
}
  0
LINE
  5
556
330
7C
100
AcDbEntity
  8
BASIC DEVICE
100
AcDbLine
 10
5.000000000002273
 20
62.00000000001091
 30
0.0
 11
31.00000000000227
 21
62.00000000001091
 31
0.0
  0
LINE
  5
557
330
7C
100
AcDbEntity
  8
BASIC DEVICE
100
AcDbLine
 10
0.0
 20
54.14327470649755
 30
0.0
 11
5.000000000002273
 21
54.14327470649755
 31
0.0
  0
LINE
  5
558
330
7C
100
AcDbEntity
  8
BASIC DEVICE
100
AcDbLine
 10
0.0
 20
44.85672529350245
 30
0.0
 11
5.000000000002273
 21
44.85672529350245
 31
0.0
  0
LINE
  5
559
330
7C
100
AcDbEntity
  8
BASIC DEVICE
100
AcDbLine
 10
31.00000000000227
 20
54.14327470649755
 30
0.0
 11
35.99999999999591
 21
54.14327470649755
 31
0.0
  0
LINE
  5
55A
330
7C
100
AcDbEntity
  8
BASIC DEVICE
100
AcDbLine
 10
31.00000000000227
 20
44.85672529350245
 30
0.0
 11
35.99999999999591
 21
44.85672529350245
 31
0.0
  0
LINE
  5
55B
330
7C
100
AcDbEntity
  8
BASIC DEVICE
100
AcDbLine
 10
0.0
 20
40.49999999999999
 30
0.0
 11
5.000000000002273
 21
40.49999999999999
 31
0.0
  0
LINE
  5
55C
330
7C
100
AcDbEntity
  8
BASIC DEVICE
100
AcDbLine
 10
0.0
 20
31.5
 30
0.0
 11
5.000000000002273
 21
31.5
 31
0.0
  0
LINE
  5
55D
330
7C
100
AcDbEntity
  8
BASIC DEVICE
100
AcDbLine
 10
31.00000000000227
 20
40.49999999999999
 30
0.0
 11
35.99999999999591
 21
40.49999999999999
 31
0.0
  0
LINE
  5
55E
330
7C
100
AcDbEntity
  8
BASIC DEVICE
100
AcDbLine
 10
31.00000000000227
 20
31.5
 30
0.0
 11
35.99999999999591
 21
31.5
 31
0.0
  0
LWPOLYLINE
  5
55F
330
7C
100
AcDbEntity
  8
BASIC DEVICE
100
AcDbPolyline
 90
        5
 70
     1
 43
0.0
 10
36.0
 20
87.00000000000727
 10
35.999999999995
 20
0.0
 10
0.0
 20
0.0
 10
0.0
 20
12.99999999998545
 10
0.0
 20
87.0
  0
LWPOLYLINE
  5
560
330
7C
100
AcDbEntity
  8
BASIC DEVICE
100
AcDbPolyline
 90
        4
 70
     1
 43
0.0
 10
28.5
 20
36.0
 10
28.5
 20
43.0
 10
7.5
 20
43.0
 10
7.5
 20
36.0
  0
LWPOLYLINE
  5
561
330
7C
100
AcDbEntity
  8
BASIC DEVICE
100
AcDbPolyline
 90
        4
 70
     0
 43
0.0
 10
18.00000000000864
 20
54.50000000001046
 10
7.162877924182339
 20
54.50000000001046
 10
7.162877924182339
 20
49.50000000001046
 10
18.00000000000864
 20
49.50000000001046
  0
LWPOLYLINE
  5
562
330
7C
100
AcDbEntity
  8
BASIC DEVICE
100
AcDbPolyline
 90
        4
 70
     0
 43
0.0
 10
21.00000000000864
 20
47.50000000001091
 10
21.00000000000864
 20
56.50000000001091
 10
18.00000000000864
 20
56.50000000001091
 10
18.00000000000864
 20
47.50000000001091
  0
LWPOLYLINE
  5
563
330
7C
100
AcDbEntity
  8
BASIC DEVICE
100
AcDbPolyline
 90
        4
 70
     0
 43
0.0
 10
21.00000000000864
 20
49.50000000001046
 10
28.16287792418234
 20
49.50000000001046
 10
28.16287792418234
 20
54.50000000001046
 10
21.00000000000864
 20
54.50000000001046
  0
LINE
  5
564
330
7C
100
AcDbEntity
  8
BASIC DEVICE
100
AcDbLine
 10
0.0
 20
14.0
 30
0.0
 11
5.000000000002273
 21
14.0
 31
0.0
  0
LINE
  5
565
330
7C
100
AcDbEntity
  8
BASIC DEVICE
100
AcDbLine
 10
31.00000000000225
 20
14.0
 30
0.0
 11
35.99999999999631
 21
14.0
 31
0.0
  0
LINE
  5
566
330
7C
100
AcDbEntity
  8
BASIC DEVICE
100
AcDbLine
 10
5.000000000002273
 20
62.00000000001091
 30
0.0
 11
31.00000000000227
 21
62.00000000001091
 31
0.0
  0
LINE
  5
567
330
7C
100
AcDbEntity
  8
BASIC DEVICE
100
AcDbLine
 10
5.000000000002273
 20
53.00000000001455
 30
0.0
 11
7.162877924182339
 21
53.00000000001455
 31
0.0
  0
LINE
  5
568
330
7C
100
AcDbEntity
  8
BASIC DEVICE
100
AcDbLine
 10
28.16287792418234
 20
53.00000000001455
 30
0.0
 11
31.00000000000227
 21
53.00000000001455
 31
0.0
  0
ENDBLK
  5
B8
330
7C
100
AcDbEntity
  8
0
100
AcDbBlockEnd
  0
BLOCK
  5
133
330
DF
100
AcDbEntity
  8
0
100
AcDbBlockBegin
  2
56a463 module 1 pole 30A J front
 70
     0
 10
0.0
 20
0.0
 30
0.0
  3
56a463 module 1 pole 30A J front
  1

  0
LWPOLYLINE
  5
E4
330
DF
100
AcDbEntity
  8
BASIC DEVICE
100
AcDbPolyline
 90
        4
 70
     1
 43
0.0
 10
-12.49999999999272
 20
99.50000000009545
 10
-12.49999999999272
 20
117.5000000000954
 10
12.50000000000727
 20
117.5000000000954
 10
12.50000000000727
 20
99.50000000009545
  0
LWPOLYLINE
  5
E5
330
DF
100
AcDbEntity
  8
BASIC DEVICE
100
AcDbPolyline
 90
        4
 70
     0
 43
0.0
 10
-9.999999999992724
 20
117.5000000000954
 10
-9.999999999992724
 20
135.5000000000954
 10
10.00000000000727
 20
135.5000000000954
 10
10.00000000000727
 20
117.5000000000954
  0
LWPOLYLINE
  5
E7
330
DF
100
AcDbEntity
  8
BASIC DEVICE
100
AcDbPolyline
 90
        6
 70
     0
 43
0.0
 10
18.00000000000727
 20
121.0000000000954
 10
13.00000000000727
 20
121.0000000000954
 10
13.00000000000727
 20
141.0000000000954
 10
-12.99999999999272
 20
141.0000000000954
 10
-12.99999999999272
 20
121.0000000000954
 10
-17.99999999999272
 20
121.0000000000954
  0
LINE
  5
EB
330
DF
100
AcDbEntity
  8
AXIS
100
AcDbLine
 10
0.000000000007276
 20
128.0000000001035
 30
0.0
 11
-12.44623438140115
 21
128.0000000001035
 31
0.0
1001
GENIUS_GENOREF_13
1005
0
  0
LINE
  5
FF
330
DF
100
AcDbEntity
  8
BASIC DEVICE
100
AcDbLine
 10
-17.99999999999278
 20
123.5000000000962
 30
0.0
 11
-13.0
 21
123.5000000000954
 31
0.0
  0
POLYLINE
  5
100
330
DF
100
AcDbEntity
  8
BASIC DEVICE
100
AcDb2dPolyline
 66
     1
 10
0.0
 20
0.0
 30
0.0
 70
     1
1001
GENIUS_GENODEF_13
1002
{
1000
HIER
1070
     0
1002
}
1002
{
1000
MANEDIT
1070
     0
1002
}
1002
{
1000
NOSEL
1070
     0
1002
}
1002
{
1000
BEHIND
1070
     0
1002
}
1002
{
1000
REACTOR
1002
}
1001
GENIUS_GENOBJ-N-REC_13
1002
{
1000
OWNER
1000
GEN
1002
}
  0
VERTEX
  5
8DA
330
100
100
AcDbEntity
  8
BASIC DEVICE
100
AcDbVertex
100
AcDb2dVertex
 10
-14.99999999999272
 20
129.3247625801926
 30
0.0
  0
VERTEX
  5
8DB
330
100
100
AcDbEntity
  8
BASIC DEVICE
100
AcDbVertex
100
AcDb2dVertex
 10
-12.99999999999272
 20
129.3247625801926
 30
0.0
  0
VERTEX
  5
8DC
330
100
100
AcDbEntity
  8
BASIC DEVICE
100
AcDbVertex
100
AcDb2dVertex
 10
-12.99999999999272
 20
135.3247625801926
 30
0.0
  0
VERTEX
  5
8DD
330
100
100
AcDbEntity
  8
BASIC DEVICE
100
AcDbVertex
100
AcDb2dVertex
 10
-14.99999999999272
 20
135.3247625801926
 30
0.0
  0
SEQEND
  5
8DE
330
100
100
AcDbEntity
  8
BASIC DEVICE
  0
LINE
  5
11C
330
DF
100
AcDbEntity
  8
AXIS
100
AcDbLine
 10
0.000000000007276
 20
128.0000000001035
 30
0.0
 11
0.000000000007276
 21
140.4462343815119
 31
0.0
1001
GENIUS_GENOREF_13
1005
0
  0
LINE
  5
11D
330
DF
100
AcDbEntity
  8
AXIS
100
AcDbLine
 10
0.000000000007276
 20
128.0000000001035
 30
0.0
 11
12.44623438141571
 21
128.0000000001035
 31
0.0
1001
GENIUS_GENOREF_13
1005
0
  0
LINE
  5
11E
330
DF
100
AcDbEntity
  8
AXIS
100
AcDbLine
 10
0.000000000007276
 20
128.0000000001035
 30
0.0
 11
0.000000000007276
 21
115.5537656186951
 31
0.0
1001
GENIUS_GENOREF_13
1005
0
  0
LINE
  5
123
330
DF
100
AcDbEntity
  8
BASIC DEVICE
100
AcDbLine
 10
13.00000000001455
 20
123.5000000000954
 30
0.0
 11
18.00000000000727
 21
123.5000000000889
 31
0.0
  0
LINE
  5
124
330
DF
100
AcDbEntity
  8
BASIC DEVICE
100
AcDbLine
 10
18.00000000000727
 20
123.5000000000889
 30
0.0
 11
18.00000000000727
 21
121.0000000000954
 31
0.0
  0
POLYLINE
  5
126
330
DF
100
AcDbEntity
  8
BASIC DEVICE
100
AcDb2dPolyline
 66
     1
 10
0.0
 20
0.0
 30
0.0
 70
     1
1001
GENIUS_GENODEF_13
1002
{
1000
HIER
1070
     0
1002
}
1002
{
1000
MANEDIT
1070
     0
1002
}
1002
{
1000
NOSEL
1070
     0
1002
}
1002
{
1000
BEHIND
1070
     0
1002
}
1002
{
1000
REACTOR
1002
}
1001
GENIUS_GENOBJ-N-REC_13
1002
{
1000
OWNER
1000
GEN
1002
}
  0
VERTEX
  5
8E5
330
126
100
AcDbEntity
  8
BASIC DEVICE
100
AcDbVertex
100
AcDb2dVertex
 10
13.02752024151414
 20
129.3247625801925
 30
0.0
  0
VERTEX
  5
8E6
330
126
100
AcDbEntity
  8
BASIC DEVICE
100
AcDbVertex
100
AcDb2dVertex
 10
15.02752024151414
 20
129.3247625801925
 30
0.0
  0
VERTEX
  5
8E7
330
126
100
AcDbEntity
  8
BASIC DEVICE
100
AcDbVertex
100
AcDb2dVertex
 10
15.02752024151414
 20
135.3247625801925
 30
0.0
  0
VERTEX
  5
8E8
330
126
100
AcDbEntity
  8
BASIC DEVICE
100
AcDbVertex
100
AcDb2dVertex
 10
13.02752024151414
 20
135.3247625801925
 30
0.0
  0
SEQEND
  5
8E9
330
126
100
AcDbEntity
  8
BASIC DEVICE
  0
LWPOLYLINE
  5
12D
330
DF
100
AcDbEntity
  8
BASIC DEVICE
100
AcDbPolyline
 90
        6
 70
     1
 43
0.0
 10
6.500000000007275
 20
131.7527767498362
 10
0.000000000007276
 20
135.5055534995687
 10
-6.499999999992724
 20
131.7527767498359
 10
-6.499999999992724
 20
124.2472232503709
 10
0.000000000007276
 20
120.4944465006384
 10
6.500000000007275
 20
124.2472232503712
  0
CIRCLE
  5
12E
330
DF
100
AcDbEntity
  8
BASIC DEVICE
100
AcDbCircle
 10
0.000000000007276
 20
128.0000000001035
 30
0.0
 40
6.5
  0
CIRCLE
  5
12F
330
DF
100
AcDbEntity
  8
BASIC DEVICE
100
AcDbCircle
 10
0.000000000007276
 20
128.0000000001035
 30
0.0
 40
8.0
  0
LWPOLYLINE
  5
437
330
DF
100
AcDbEntity
  8
BASIC DEVICE
100
AcDbPolyline
 90
        5
 70
     0
 43
0.0
 10
-12.99999999999272
 20
22.32476258019261
 10
-17.99999999999278
 20
22.32476258019261
 10
-17.99999999999278
 20
79.32476258019263
 10
-17.99999999999278
 20
136.3247625801926
 10
-12.99999999999272
 20
136.3247625801926
  0
CIRCLE
  5
8EE
330
DF
100
AcDbEntity
  8
BASIC DEVICE
100
AcDbCircle
 10
0.000000000007276
 20
30.64952516028174
 30
0.0
 40
8.0
  0
CIRCLE
  5
8EF
330
DF
100
AcDbEntity
  8
BASIC DEVICE
100
AcDbCircle
 10
0.000000000007276
 20
30.64952516028174
 30
0.0
 40
6.5
  0
LWPOLYLINE
  5
8F0
330
DF
100
AcDbEntity
  8
BASIC DEVICE
100
AcDbPolyline
 90
        6
 70
     1
 43
0.0
 10
6.500000000007275
 20
26.89674841054907
 10
0.000000000007276
 20
23.14397166081651
 10
-6.499999999992724
 20
26.89674841054929
 10
-6.499999999992724
 20
34.4023019100143
 10
0.000000000007276
 20
38.15507865974686
 10
6.500000000007275
 20
34.40230191001408
  0
LINE
  5
8F1
330
DF
100
AcDbEntity
  8
AXIS
100
AcDbLine
 10
0.000000000007276
 20
30.64952516028174
 30
0.0
 11
-12.44623438140115
 21
30.64952516028174
 31
0.0
  0
LWPOLYLINE
  5
8F2
330
DF
100
AcDbEntity
  8
BASIC DEVICE
100
AcDbPolyline
 90
        6
 70
     0
 43
0.0
 10
18.00000000000727
 20
37.64952516028981
 10
13.00000000000727
 20
37.64952516028981
 10
13.00000000000727
 20
17.64952516028981
 10
-12.99999999999272
 20
17.64952516028981
 10
-12.99999999999272
 20
37.64952516028981
 10
-17.99999999999272
 20
37.64952516028981
  0
LWPOLYLINE
  5
8F3
330
DF
100
AcDbEntity
  8
BASIC DEVICE
100
AcDbPolyline
 90
        4
 70
     0
 43
0.0
 10
-9.999999999992724
 20
41.14952516028981
 10
-9.999999999992724
 20
23.14952516028981
 10
10.00000000000727
 20
23.14952516028981
 10
10.00000000000727
 20
41.14952516028981
  0
LWPOLYLINE
  5
8F4
330
DF
100
AcDbEntity
  8
BASIC DEVICE
100
AcDbPolyline
 90
        4
 70
     1
 43
0.0
 10
-12.49999999999272
 20
59.14952516028981
 10
-12.49999999999272
 20
41.14952516028981
 10
12.50000000000727
 20
41.14952516028981
 10
12.50000000000727
 20
59.14952516028981
  0
LINE
  5
8F5
330
DF
100
AcDbEntity
  8
BASIC DEVICE
100
AcDbLine
 10
-17.99999999999278
 20
35.14952516028902
 30
0.0
 11
-13.0
 21
35.14952516028981
 31
0.0
  0
POLYLINE
  5
8F6
330
DF
100
AcDbEntity
  8
BASIC DEVICE
100
AcDb2dPolyline
 66
     1
 10
0.0
 20
0.0
 30
0.0
 70
     1
1001
GENIUS_GENODEF_13
1002
{
1000
HIER
1070
     0
1002
}
1002
{
1000
MANEDIT
1070
     0
1002
}
1002
{
1000
NOSEL
1070
     0
1002
}
1002
{
1000
BEHIND
1070
     0
1002
}
1002
{
1000
REACTOR
1002
}
1001
GENIUS_GENOBJ-N-REC_13
1002
{
1000
OWNER
1000
GEN
1002
}
  0
VERTEX
  5
8F7
330
8F6
100
AcDbEntity
  8
BASIC DEVICE
100
AcDbVertex
100
AcDb2dVertex
 10
-14.99999999999272
 20
29.32476258019264
 30
0.0
  0
VERTEX
  5
8F8
330
8F6
100
AcDbEntity
  8
BASIC DEVICE
100
AcDbVertex
100
AcDb2dVertex
 10
-12.99999999999272
 20
29.32476258019264
 30
0.0
  0
VERTEX
  5
8F9
330
8F6
100
AcDbEntity
  8
BASIC DEVICE
100
AcDbVertex
100
AcDb2dVertex
 10
-12.99999999999272
 20
23.32476258019264
 30
0.0
  0
VERTEX
  5
8FA
330
8F6
100
AcDbEntity
  8
BASIC DEVICE
100
AcDbVertex
100
AcDb2dVertex
 10
-14.99999999999272
 20
23.32476258019264
 30
0.0
  0
SEQEND
  5
8FB
330
8F6
100
AcDbEntity
  8
BASIC DEVICE
  0
LINE
  5
8FC
330
DF
100
AcDbEntity
  8
AXIS
100
AcDbLine
 10
0.000000000007276
 20
30.64952516028174
 30
0.0
 11
0.000000000007276
 21
18.20329077887331
 31
0.0
  0
LINE
  5
8FD
330
DF
100
AcDbEntity
  8
AXIS
100
AcDbLine
 10
0.000000000007276
 20
30.64952516028174
 30
0.0
 11
0.000000000007276
 21
43.09575954169017
 31
0.0
  0
LINE
  5
8FE
330
DF
100
AcDbEntity
  8
AXIS
100
AcDbLine
 10
0.000000000007276
 20
30.64952516028174
 30
0.0
 11
12.44623438141571
 21
30.64952516028174
 31
0.0
  0
LINE
  5
8FF
330
DF
100
AcDbEntity
  8
BASIC DEVICE
100
AcDbLine
 10
18.00000000000727
 20
35.14952516029629
 30
0.0
 11
18.00000000000727
 21
37.64952516028981
 31
0.0
  0
LINE
  5
900
330
DF
100
AcDbEntity
  8
BASIC DEVICE
100
AcDbLine
 10
13.00000000001455
 20
35.14952516028981
 30
0.0
 11
18.00000000000727
 21
35.14952516029629
 31
0.0
  0
POLYLINE
  5
901
330
DF
100
AcDbEntity
  8
BASIC DEVICE
100
AcDb2dPolyline
 66
     1
 10
0.0
 20
0.0
 30
0.0
 70
     1
1001
GENIUS_GENODEF_13
1002
{
1000
HIER
1070
     0
1002
}
1002
{
1000
MANEDIT
1070
     0
1002
}
1002
{
1000
NOSEL
1070
     0
1002
}
1002
{
1000
BEHIND
1070
     0
1002
}
1002
{
1000
REACTOR
1002
}
1001
GENIUS_GENOBJ-N-REC_13
1002
{
1000
OWNER
1000
GEN
1002
}
  0
VERTEX
  5
902
330
901
100
AcDbEntity
  8
BASIC DEVICE
100
AcDbVertex
100
AcDb2dVertex
 10
13.02752024151414
 20
29.3247625801927
 30
0.0
  0
VERTEX
  5
903
330
901
100
AcDbEntity
  8
BASIC DEVICE
100
AcDbVertex
100
AcDb2dVertex
 10
15.02752024151414
 20
29.3247625801927
 30
0.0
  0
VERTEX
  5
904
330
901
100
AcDbEntity
  8
BASIC DEVICE
100
AcDbVertex
100
AcDb2dVertex
 10
15.02752024151414
 20
23.3247625801927
 30
0.0
  0
VERTEX
  5
905
330
901
100
AcDbEntity
  8
BASIC DEVICE
100
AcDbVertex
100
AcDb2dVertex
 10
13.02752024151414
 20
23.3247625801927
 30
0.0
  0
SEQEND
  5
906
330
901
100
AcDbEntity
  8
BASIC DEVICE
  0
LWPOLYLINE
  5
907
330
DF
100
AcDbEntity
  8
BASIC DEVICE
100
AcDbPolyline
 90
        5
 70
     0
 43
0.0
 10
13.00000000000727
 20
22.32476258019261
 10
18.00000000000733
 20
22.32476258019261
 10
18.00000000000733
 20
79.32476258019263
 10
18.00000000000733
 20
136.3247625801926
 10
13.00000000000727
 20
136.3247625801926
  0
ENDBLK
  5
134
330
DF
100
AcDbEntity
  8
0
100
AcDbBlockEnd
  0
BLOCK
  5
236
330
229
100
AcDbEntity
  8
0
100
AcDbBlockBegin
  2
522048 cover fuse back
 70
     0
 10
0.0
 20
0.0
 30
0.0
  3
522048 cover fuse back
  1

  0
LINE
  5
22A
330
229
100
AcDbEntity
  8
COVER FUSE
100
AcDbLine
 10
-17.99999999999215
 20
26.0
 30
0.0
 11
-8.026825632968879
 21
32.95145402161953
 31
0.0
  0
LWPOLYLINE
  5
22B
330
229
100
AcDbEntity
  8
COVER FUSE
100
AcDbPolyline
 90
        4
 70
     0
 43
0.0
 10
-10.5
 20
-3.5
 10
-10.5
 20
-17.5
 10
10.5
 20
-17.5
 10
10.5
 20
-3.5
  0
LWPOLYLINE
  5
22C
330
229
100
AcDbEntity
  8
COVER FUSE
100
AcDbPolyline
 90
        6
 70
     0
 43
0.0
 10
-18.00000000000645
 20
-0.04854597838019
 10
-17.99999999998371
 20
41.38687768699648
 42
-0.1105571282572094
 10
8.560008449931366
 20
51.99999999999957
 42
-0.0787603303953536
 10
18.0000000000064
 20
39.2755553926996
 10
18.00000000000642
 20
0.0
 10
-18.00000000000642
 20
0.0
  0
LWPOLYLINE
  5
22D
330
229
100
AcDbEntity
  8
COVER FUSE
100
AcDbPolyline
 90
        4
 70
     0
 43
0.0
 10
-16.25
 20
0.0
 10
-16.25
 20
-3.5
 10
16.25
 20
-3.5
 10
16.25
 20
0.0
  0
LWPOLYLINE
  5
22E
330
229
100
AcDbEntity
  8
COVER FUSE
100
AcDbPolyline
 90
        4
 70
     0
 43
0.0
 10
-9.664413718052024
 20
46.29871474298553
 10
-9.664413718052024
 20
34.78098247801538
 10
-13.66441371805202
 20
34.78098247801538
 10
-13.66441371805202
 20
44.11262872850577
1001
GENIUS_GENODEF_13
1002
{
1000
HIER
1070
     0
1002
}
1002
{
1000
MANEDIT
1070
     0
1002
}
1002
{
1000
NOSEL
1070
     0
1002
}
1002
{
1000
BEHIND
1070
     0
1002
}
1002
{
1000
REACTOR
1002
}
1001
GENIUS_GENOBJ-N-REC_13
1002
{
1000
OWNER
1000
GEN
1002
}
  0
LWPOLYLINE
  5
22F
330
229
100
AcDbEntity
  8
COVER FUSE
100
AcDbPolyline
 90
        4
 70
     0
 43
0.0
 10
-2.030542679703636
 20
32.84763184849587
 10
-2.030542679703643
 20
8.988893926761846
 10
-6.030542679703643
 20
8.988893926761846
 10
-6.030542679703636
 20
33.00802667236613
1001
GENIUS_GENODEF_13
1002
{
1000
HIER
1070
     0
1002
}
1002
{
1000
MANEDIT
1070
     0
1002
}
1002
{
1000
NOSEL
1070
     0
1002
}
1002
{
1000
BEHIND
1070
     0
1002
}
1002
{
1000
REACTOR
1002
}
1001
GENIUS_GENOBJ-N-REC_13
1002
{
1000
OWNER
1000
GEN
1002
}
  0
LWPOLYLINE
  5
230
330
229
100
AcDbEntity
  8
COVER FUSE
100
AcDbPolyline
 90
        4
 70
     0
 43
0.0
 10
5.785090370241881
 20
31.45503701769027
 10
5.785090370241874
 20
8.443990550115103
 10
1.785090370241874
 20
8.443990550115103
 10
1.785090370241881
 20
32.35036408117907
1001
GENIUS_GENODEF_13
1002
{
1000
HIER
1070
     0
1002
}
1002
{
1000
MANEDIT
1070
     0
1002
}
1002
{
1000
NOSEL
1070
     0
1002
}
1002
{
1000
BEHIND
1070
     0
1002
}
1002
{
1000
REACTOR
1002
}
1001
GENIUS_GENOBJ-N-REC_13
1002
{
1000
OWNER
1000
GEN
1002
}
  0
LWPOLYLINE
  5
231
330
229
100
AcDbEntity
  8
COVER FUSE
100
AcDbPolyline
 90
        4
 70
     0
 43
0.0
 10
13.05544466441771
 20
27.74312996829551
 10
13.05544466441771
 20
8.443990550115103
 10
9.055444664417706
 20
8.443990550115103
 10
9.055444664417713
 20
30.42171201145698
1001
GENIUS_GENODEF_13
1002
{
1000
HIER
1070
     0
1002
}
1002
{
1000
MANEDIT
1070
     0
1002
}
1002
{
1000
NOSEL
1070
     0
1002
}
1002
{
1000
BEHIND
1070
     0
1002
}
1002
{
1000
REACTOR
1002
}
1001
GENIUS_GENOBJ-N-REC_13
1002
{
1000
OWNER
1000
GEN
1002
}
  0
LWPOLYLINE
  5
232
330
229
100
AcDbEntity
  8
COVER FUSE
100
AcDbPolyline
 90
        4
 70
     1
 43
0.0
 10
-6.0
 20
-9.0
 10
6.0
 20
-9.0
 10
6.0
 20
-14.5
 10
-6.0
 20
-14.5
1001
GENIUS_GENREC_14
1002
{
1000
PYDIR
1011
-6.0
1021
-14.5
1031
0.0
1002
}
1002
{
1000
PXDIR
1011
6.0
1021
-9.0
1031
0.0
1002
}
1002
{
1000
PORI
1011
-6.0
1021
-9.0
1031
0.0
1002
}
1002
{
1000
PINS
1011
-6.0
1021
-9.0
1031
0.0
1002
}
1002
{
1000
PINS2
1011
6.0
1021
-14.5
1031
0.0
1002
}
1002
{
1000
C
1070
     1
1002
}
1001
GENIUS_GENODEF_13
1002
{
1000
HIER
1070
     0
1002
}
1002
{
1000
MANEDIT
1070
     0
1002
}
1002
{
1000
NOSEL
1070
     0
1002
}
1002
{
1000
BEHIND
1070
     0
1002
}
1002
{
1000
REACTOR
1002
}
1001
GENIUS_GENOBJ-N-REC_13
1002
{
1000
OWNER
1000
GEN
1002
}
  0
LWPOLYLINE
  5
233
330
229
100
AcDbEntity
  8
COVER FUSE
100
AcDbPolyline
 90
        4
 70
     0
 43
0.0
 10
5.603330784985168
 20
51.45311306752202
 10
5.603330784985168
 20
35.14425185678485
 10
1.603330784985168
 20
35.14425185678485
 10
1.603330784985168
 20
50.48567938557673
1001
GENIUS_GENODEF_13
1002
{
1000
HIER
1070
     0
1002
}
1002
{
1000
MANEDIT
1070
     0
1002
}
1002
{
1000
NOSEL
1070
     0
1002
}
1002
{
1000
BEHIND
1070
     0
1002
}
1002
{
1000
REACTOR
1002
}
1001
GENIUS_GENOBJ-N-REC_13
1002
{
1000
OWNER
1000
GEN
1002
}
  0
ARC
  5
234
330
229
100
AcDbEntity
  8
COVER FUSE
100
AcDbCircle
 10
-5.786338154321626
 20
-10.85900705389315
 30
0.0
 40
43.86771345523934
100
AcDbArc
 50
57.16450698698648
 51
92.92758253579279
  0
LWPOLYLINE
  5
235
330
229
100
AcDbEntity
  8
COVER FUSE
100
AcDbPolyline
 90
        4
 70
     0
 43
0.0
 10
-2.030542679703636
 20
49.37045582256789
 10
-2.030542679703636
 20
35.14425185678485
 10
-6.030542679703636
 20
35.14425185678485
 10
-6.030542679703636
 20
47.86736526231672
1001
GENIUS_GENODEF_13
1002
{
1000
HIER
1070
     0
1002
}
1002
{
1000
MANEDIT
1070
     0
1002
}
1002
{
1000
NOSEL
1070
     0
1002
}
1002
{
1000
BEHIND
1070
     0
1002
}
1002
{
1000
REACTOR
1002
}
1001
GENIUS_GENOBJ-N-REC_13
1002
{
1000
OWNER
1000
GEN
1002
}
  0
ENDBLK
  5
237
330
229
100
AcDbEntity
  8
0
100
AcDbBlockEnd
  0
BLOCK
  5
264
330
240
100
AcDbEntity
  8
0
100
AcDbBlockBegin
  2
522048 cover fuse front
 70
     0
 10
0.0
 20
0.0
 30
0.0
  3
522048 cover fuse front
  1

  0
LWPOLYLINE
  5
241
330
240
100
AcDbEntity
  8
COVER FUSE
100
AcDbPolyline
 90
        8
 70
     0
 43
0.0
 10
23.25265804083756
 20
106.9647418541469
 10
14.45265804083756
 20
101.3647418541469
 10
19.55265804083756
 20
101.3647418541469
 10
19.55265804083756
 20
97.06474185414691
 10
26.95265804083756
 20
97.06474185414691
 10
26.95265804083756
 20
101.3647418541469
 10
32.05265804083756
 20
101.3647418541469
 10
23.25265804083756
 20
106.9647418541469
  0
LWPOLYLINE
  5
242
330
240
100
AcDbEntity
  8
COVER FUSE
100
AcDbPolyline
 90
        4
 70
     1
 43
0.0
 10
2.000000000000007
 20
116.2
 10
34.00000000001287
 20
116.2
 10
34.00000000001286
 20
2.0
 10
2.0
 20
2.0
1001
GENIUS_GENREC_14
1002
{
1000
PYDIR
1011
0.0
1021
0.0
1031
0.0
1002
}
1002
{
1000
PXDIR
1011
36.00000000001287
1021
118.2
1031
0.0
1002
}
1002
{
1000
PORI
1011
0.0000000000000071
1021
118.2
1031
0.0
1002
}
1002
{
1000
PINS
1011
0.0000000000000071
1021
118.2
1031
0.0
1002
}
1002
{
1000
PINS2
1011
36.00000000001287
1021
0.0
1031
0.0
1002
}
1002
{
1000
C
1070
     1
1002
}
1001
GENIUS_GENODEF_13
1002
{
1000
HIER
1070
     0
1002
}
1002
{
1000
MANEDIT
1070
     0
1002
}
1002
{
1000
NOSEL
1070
     0
1002
}
1002
{
1000
BEHIND
1070
     0
1002
}
1002
{
1000
REACTOR
1002
}
1001
GENIUS_GENOBJ-N-REC_13
1002
{
1000
OWNER
1000
GEN
1002
}
  0
LINE
  5
243
330
240
100
AcDbEntity
  8
COVER FUSE
100
AcDbLine
 10
9.973174367036349
 20
118.2
 30
0.0
 11
9.973174367036349
 21
88.29999999999998
 31
0.0
  0
LWPOLYLINE
  5
244
330
240
100
AcDbEntity
  8
COVER FUSE
100
AcDbPolyline
 90
        4
 70
     1
 43
0.0
 10
0.0000000000000071
 20
118.2
 10
36.00000000001287
 20
118.2
 10
36.00000000001286
 20
0.0
 10
0.0
 20
0.0
1001
GENIUS_GENREC_14
1002
{
1000
PYDIR
1011
0.0
1021
0.0
1031
0.0
1002
}
1002
{
1000
PXDIR
1011
36.00000000001287
1021
118.2
1031
0.0
1002
}
1002
{
1000
PORI
1011
0.0000000000000071
1021
118.2
1031
0.0
1002
}
1002
{
1000
PINS
1011
0.0000000000000071
1021
118.2
1031
0.0
1002
}
1002
{
1000
PINS2
1011
36.00000000001287
1021
0.0
1031
0.0
1002
}
1002
{
1000
C
1070
     1
1002
}
1001
GENIUS_GENODEF_13
1002
{
1000
HIER
1070
     0
1002
}
1002
{
1000
MANEDIT
1070
     0
1002
}
1002
{
1000
NOSEL
1070
     0
1002
}
1002
{
1000
BEHIND
1070
     0
1002
}
1002
{
1000
REACTOR
1002
}
1001
GENIUS_GENOBJ-N-REC_13
1002
{
1000
OWNER
1000
GEN
1002
}
  0
LWPOLYLINE
  5
245
330
240
100
AcDbEntity
  8
COVER FUSE
100
AcDbPolyline
 90
        4
 70
     0
 43
0.0
 10
7.500000000006451
 20
0.0
 10
7.500000000006451
 20
-1.800000000000011
 10
28.50000000000645
 20
-1.800000000000011
 10
28.50000000000645
 20
0.0
  0
LINE
  5
246
330
240
100
AcDbEntity
  8
COVER FUSE
100
AcDbLine
 10
0.0
 20
29.89999999999998
 30
0.0
 11
36.00000000001286
 21
29.89999999999998
 31
0.0
  0
LINE
  5
247
330
240
100
AcDbEntity
  8
COVER FUSE
100
AcDbLine
 10
0.0000000000000071
 20
88.29999999999998
 30
0.0
 11
36.00000000001286
 21
88.29999999999998
 31
0.0
  0
LWPOLYLINE
  5
248
330
240
100
AcDbEntity
  8
COVER FUSE
100
AcDbPolyline
 90
        4
 70
     0
 43
0.0
 10
4.335586281954427
 20
29.90000000000001
 10
4.335586281954427
 20
31.69999999999999
 10
8.335586281954427
 20
31.69999999999999
 10
8.335586281954427
 20
29.90000000000001
  0
LWPOLYLINE
  5
249
330
240
100
AcDbEntity
  8
COVER FUSE
100
AcDbPolyline
 90
        4
 70
     0
 43
0.0
 10
4.335586281954427
 20
88.29999999999998
 10
4.335586281954427
 20
86.5
 10
8.335586281954427
 20
86.5
 10
8.335586281954427
 20
88.29999999999998
  0
LINE
  5
24A
330
240
100
AcDbEntity
  8
COVER FUSE
100
AcDbLine
 10
26.56000844993783
 20
88.29999999999998
 30
0.0
 11
26.56000844993783
 21
29.89999999999998
 31
0.0
  0
LINE
  5
24B
330
240
100
AcDbEntity
  8
COVER FUSE
100
AcDbLine
 10
9.973174367036349
 20
29.89999999999998
 30
0.0
 11
9.973174367036349
 21
0.0
 31
0.0
  0
LWPOLYLINE
  5
24C
330
240
100
AcDbEntity
  8
COVER FUSE
100
AcDbPolyline
 90
        4
 70
     0
 43
0.0
 10
27.05544466442417
 20
0.0
 10
27.05544466442417
 20
1.800000000000011
 10
31.05544466442417
 20
1.800000000000011
 10
31.05544466442417
 20
0.0
  0
LWPOLYLINE
  5
24D
330
240
100
AcDbEntity
  8
COVER FUSE
100
AcDbPolyline
 90
        4
 70
     0
 43
0.0
 10
11.96945732030281
 20
0.0
 10
11.96945732030281
 20
1.800000000000011
 10
15.96945732030281
 20
1.800000000000011
 10
15.96945732030281
 20
0.0
  0
LWPOLYLINE
  5
24E
330
240
100
AcDbEntity
  8
COVER FUSE
100
AcDbPolyline
 90
        4
 70
     0
 43
0.0
 10
19.78509037024833
 20
0.0
 10
19.78509037024833
 20
1.800000000000011
 10
23.78509037024834
 20
1.800000000000011
 10
23.78509037024834
 20
0.0
  0
LINE
  5
24F
330
240
100
AcDbEntity
  8
COVER FUSE
100
AcDbLine
 10
26.56000844993782
 20
31.80000000000004
 30
0.0
 11
34.00000000001286
 21
31.80000000000004
 31
0.0
  0
LWPOLYLINE
  5
250
330
240
100
AcDbEntity
  8
COVER FUSE
100
AcDbPolyline
 90
        4
 70
     0
 43
0.0
 10
19.60333078499162
 20
29.90000000000001
 10
19.60333078499162
 20
31.69999999999999
 10
23.60333078499162
 20
31.69999999999999
 10
23.60333078499162
 20
29.90000000000001
  0
LWPOLYLINE
  5
251
330
240
100
AcDbEntity
  8
COVER FUSE
100
AcDbPolyline
 90
        4
 70
     0
 43
0.0
 10
11.96945732030281
 20
29.90000000000001
 10
11.96945732030281
 20
31.69999999999999
 10
15.96945732030281
 20
31.69999999999999
 10
15.96945732030281
 20
29.90000000000001
  0
LINE
  5
252
330
240
100
AcDbEntity
  8
COVER FUSE
100
AcDbLine
 10
26.56000844993782
 20
39.40000000000003
 30
0.0
 11
34.00000000001286
 21
39.40000000000003
 31
0.0
  0
LINE
  5
253
330
240
100
AcDbEntity
  8
COVER FUSE
100
AcDbLine
 10
26.56000844993783
 20
41.20000000000003
 30
0.0
 11
34.00000000001286
 21
41.20000000000003
 31
0.0
  0
LINE
  5
254
330
240
100
AcDbEntity
  8
COVER FUSE
100
AcDbLine
 10
26.56000844993783
 20
48.80000000000002
 30
0.0
 11
34.00000000001286
 21
48.80000000000002
 31
0.0
  0
LINE
  5
255
330
240
100
AcDbEntity
  8
COVER FUSE
100
AcDbLine
 10
26.56000844993783
 20
50.60000000000002
 30
0.0
 11
34.00000000001287
 21
50.60000000000002
 31
0.0
  0
LINE
  5
256
330
240
100
AcDbEntity
  8
COVER FUSE
100
AcDbLine
 10
26.56000844993783
 20
58.20000000000002
 30
0.0
 11
34.00000000001287
 21
58.20000000000002
 31
0.0
  0
LINE
  5
257
330
240
100
AcDbEntity
  8
COVER FUSE
100
AcDbLine
 10
26.56000844993783
 20
60.00000000000001
 30
0.0
 11
34.00000000001287
 21
60.00000000000001
 31
0.0
  0
LINE
  5
258
330
240
100
AcDbEntity
  8
COVER FUSE
100
AcDbLine
 10
26.56000844993783
 20
67.60000000000001
 30
0.0
 11
34.00000000001287
 21
67.60000000000001
 31
0.0
  0
LINE
  5
259
330
240
100
AcDbEntity
  8
COVER FUSE
100
AcDbLine
 10
26.56000844993783
 20
69.40000000000001
 30
0.0
 11
34.00000000001287
 21
69.40000000000001
 31
0.0
  0
LINE
  5
25A
330
240
100
AcDbEntity
  8
COVER FUSE
100
AcDbLine
 10
26.56000844993783
 20
77.0
 30
0.0
 11
34.00000000001287
 21
77.0
 31
0.0
  0
LINE
  5
25B
330
240
100
AcDbEntity
  8
COVER FUSE
100
AcDbLine
 10
26.56000844993783
 20
78.79999999999999
 30
0.0
 11
34.00000000001287
 21
78.79999999999999
 31
0.0
  0
LINE
  5
25C
330
240
100
AcDbEntity
  8
COVER FUSE
100
AcDbLine
 10
26.56000844993783
 20
86.5
 30
0.0
 11
34.00000000001287
 21
86.5
 31
0.0
  0
LWPOLYLINE
  5
25D
330
240
100
AcDbEntity
  8
COVER FUSE
100
AcDbPolyline
 90
        4
 70
     0
 43
0.0
 10
19.60333078499162
 20
88.29999999999998
 10
19.60333078499162
 20
86.5
 10
23.60333078499162
 20
86.5
 10
23.60333078499162
 20
88.29999999999998
  0
LWPOLYLINE
  5
25E
330
240
100
AcDbEntity
  8
COVER FUSE
100
AcDbPolyline
 90
        4
 70
     0
 43
0.0
 10
11.96945732030281
 20
88.29999999999998
 10
11.96945732030281
 20
86.5
 10
15.96945732030281
 20
86.5
 10
15.96945732030281
 20
88.29999999999998
  0
LWPOLYLINE
  5
25F
330
240
100
AcDbEntity
  8
COVER FUSE
100
AcDbPolyline
 90
        4
 70
     0
 43
0.0
 10
7.500000000006451
 20
118.2
 10
7.500000000006451
 20
120.0
 10
28.50000000000645
 20
120.0
 10
28.50000000000645
 20
118.2
  0
MTEXT
  5
260
330
240
100
AcDbEntity
  8
COVER FUSE
100
AcDbMText
 10
14.01043309962544
 20
114.355077962737
 30
0.0
 40
6.0
 41
23.7
 71
     1
 72
     5
  1
{\fArial Black|b0|i0|c0|p34;TOP}
 73
     1
 44
1.0
1001
ACAD
1000
MTEXTBEGIN
1070
    73
1070
     1
1070
    44
1040
1.0
1070
    74
1070
     0
1000
MTEXTEND
  0
LWPOLYLINE
  5
261
330
240
100
AcDbEntity
  8
COVER FUSE
100
AcDbPolyline
 90
        4
 70
     0
 43
0.0
 10
27.05544466442417
 20
118.2
 10
27.05544466442417
 20
116.3999999999999
 10
31.05544466442417
 20
116.3999999999999
 10
31.05544466442417
 20
118.2
  0
LWPOLYLINE
  5
262
330
240
100
AcDbEntity
  8
COVER FUSE
100
AcDbPolyline
 90
        4
 70
     0
 43
0.0
 10
11.96945732030281
 20
118.2
 10
11.96945732030281
 20
116.3999999999999
 10
15.96945732030281
 20
116.3999999999999
 10
15.96945732030281
 20
118.2
  0
LWPOLYLINE
  5
263
330
240
100
AcDbEntity
  8
COVER FUSE
100
AcDbPolyline
 90
        4
 70
     0
 43
0.0
 10
19.78509037024833
 20
118.2
 10
19.78509037024833
 20
116.3999999999999
 10
23.78509037024834
 20
116.3999999999999
 10
23.78509037024834
 20
118.2
  0
ENDBLK
  5
265
330
240
100
AcDbEntity
  8
0
100
AcDbBlockEnd
  0
BLOCK
  5
286
330
26D
100
AcDbEntity
  8
0
100
AcDbBlockBegin
  2
522048 cover fuse right
 70
     0
 10
0.0
 20
0.0
 30
0.0
  3
522048 cover fuse right
  1

  0
LWPOLYLINE
  5
26E
330
26D
100
AcDbEntity
  8
COVER FUSE
100
AcDbPolyline
 90
        8
 70
     1
 43
0.0
 10
0.0
 20
118.1999999999999
 10
-32.95145402161939
 20
118.1999999999999
 10
-32.95145402161939
 20
88.29999999999987
 10
-51.99999999999954
 20
88.29999999999987
 10
-51.99999999999954
 20
29.89999999999986
 10
-32.95145402161939
 20
29.89999999999986
 10
-32.95145402161939
 20
-0.0000000000001137
 10
0.0
 20
-0.0000000000001137
  0
LINE
  5
26F
330
26D
100
AcDbEntity
  8
COVER FUSE
100
AcDbLine
 10
-39.0
 20
29.89999999999986
 30
0.0
 11
-39.0
 21
88.29999999999987
 31
0.0
  0
LINE
  5
270
330
26D
100
AcDbEntity
  8
COVER FUSE
100
AcDbLine
 10
-39.0
 20
31.79999999999993
 30
0.0
 11
-51.99999999999954
 21
31.79999999999993
 31
0.0
  0
LINE
  5
271
330
26D
100
AcDbEntity
  8
COVER FUSE
100
AcDbLine
 10
-39.0
 20
41.19999999999992
 30
0.0
 11
-51.99999999999954
 21
41.19999999999992
 31
0.0
  0
LINE
  5
272
330
26D
100
AcDbEntity
  8
COVER FUSE
100
AcDbLine
 10
-39.0
 20
39.39999999999992
 30
0.0
 11
-51.99999999999954
 21
39.39999999999992
 31
0.0
  0
LINE
  5
273
330
26D
100
AcDbEntity
  8
COVER FUSE
100
AcDbLine
 10
-39.0
 20
50.59999999999991
 30
0.0
 11
-51.99999999999954
 21
50.59999999999991
 31
0.0
  0
LINE
  5
274
330
26D
100
AcDbEntity
  8
COVER FUSE
100
AcDbLine
 10
-39.0
 20
48.79999999999991
 30
0.0
 11
-51.99999999999954
 21
48.79999999999991
 31
0.0
  0
LINE
  5
275
330
26D
100
AcDbEntity
  8
COVER FUSE
100
AcDbLine
 10
-39.0
 20
59.9999999999999
 30
0.0
 11
-51.99999999999954
 21
59.9999999999999
 31
0.0
  0
LINE
  5
276
330
26D
100
AcDbEntity
  8
COVER FUSE
100
AcDbLine
 10
-39.0
 20
58.1999999999999
 30
0.0
 11
-51.99999999999954
 21
58.1999999999999
 31
0.0
  0
LINE
  5
277
330
26D
100
AcDbEntity
  8
COVER FUSE
100
AcDbLine
 10
-39.0
 20
69.39999999999989
 30
0.0
 11
-51.99999999999954
 21
69.39999999999989
 31
0.0
  0
LINE
  5
278
330
26D
100
AcDbEntity
  8
COVER FUSE
100
AcDbLine
 10
-39.0
 20
67.5999999999999
 30
0.0
 11
-51.99999999999954
 21
67.5999999999999
 31
0.0
  0
LINE
  5
279
330
26D
100
AcDbEntity
  8
COVER FUSE
100
AcDbLine
 10
-39.0
 20
76.99999999999988
 30
0.0
 11
-51.99999999999954
 21
76.99999999999988
 31
0.0
  0
LINE
  5
27A
330
26D
100
AcDbEntity
  8
COVER FUSE
100
AcDbLine
 10
-39.0
 20
78.79999999999988
 30
0.0
 11
-51.99999999999954
 21
78.79999999999988
 31
0.0
  0
LINE
  5
27B
330
26D
100
AcDbEntity
  8
COVER FUSE
100
AcDbLine
 10
-39.0
 20
86.49999999999989
 30
0.0
 11
-51.99999999999954
 21
86.49999999999989
 31
0.0
  0
LWPOLYLINE
  5
27C
330
26D
100
AcDbEntity
  8
COVER FUSE
100
AcDbPolyline
 90
        3
 70
     0
 43
0.0
 10
-26.0
 20
118.1999999999999
 10
-26.0
 20
88.29999999999987
 10
-32.95145402161939
 20
88.29999999999987
  0
LWPOLYLINE
  5
27D
330
26D
100
AcDbEntity
  8
COVER FUSE
100
AcDbPolyline
 90
        4
 70
     0
 43
0.0
 10
0.0
 20
63.19999999999987
 10
3.5
 20
63.19999999999987
 10
3.5
 20
27.19999999999988
 10
0.0
 20
27.19999999999988
  0
LWPOLYLINE
  5
27E
330
26D
100
AcDbEntity
  8
COVER FUSE
100
AcDbPolyline
 90
        5
 70
     1
 43
0.0
 10
0.0
 20
-0.0000000000001137
 10
0.482308546376089
 20
-1.800000000000125
 10
17.50000000000003
 20
-1.800000000000096
 10
17.50000000000003
 20
-0.0000000000000853
 10
17.50000000000003
 20
-0.0000000000000853
  0
LWPOLYLINE
  5
27F
330
26D
100
AcDbEntity
  8
COVER FUSE
100
AcDbPolyline
 90
        4
 70
     0
 43
0.0
 10
0.0
 20
-0.0000000000001137
 10
3.5
 20
-0.0000000000001137
 10
3.5
 20
1.999999999999886
 10
0.0
 20
1.999999999999886
  0
LWPOLYLINE
  5
280
330
26D
100
AcDbEntity
  8
COVER FUSE
100
AcDbPolyline
 90
        3
 70
     0
 43
0.0
 10
-26.0
 20
-0.0000000000001137
 10
-26.0
 20
29.89999999999989
 10
-32.95145402161939
 20
29.89999999999989
  0
LWPOLYLINE
  5
281
330
26D
100
AcDbEntity
  8
COVER FUSE
100
AcDbPolyline
 90
        4
 70
     0
 43
0.0
 10
0.0
 20
90.99999999999988
 10
3.5
 20
90.99999999999988
 10
3.5
 20
54.99999999999989
 10
0.0
 20
54.99999999999989
  0
LWPOLYLINE
  5
282
330
26D
100
AcDbEntity
  8
COVER FUSE
100
AcDbPolyline
 90
        5
 70
     1
 43
0.0
 10
0.0
 20
118.1999999999999
 10
0.4823085463760322
 20
119.9999999999999
 10
17.5
 20
119.9999999999999
 10
17.5
 20
118.1999999999999
 10
17.5
 20
118.1999999999999
  0
LWPOLYLINE
  5
283
330
26D
100
AcDbEntity
  8
COVER FUSE
100
AcDbPolyline
 90
        4
 70
     0
 43
0.0
 10
0.0
 20
118.1999999999999
 10
3.5
 20
118.1999999999999
 10
3.5
 20
116.1999999999999
 10
0.0
 20
116.1999999999999
  0
LINE
  5
284
330
26D
100
AcDbEntity
  8
AXIS
100
AcDbLine
 10
12.5
 20
122.9999999999999
 30
0.0
 11
12.5
 21
115.1999999999999
 31
0.0
1001
GENIUS_GENODEF_13
1002
{
1000
HIER
1070
     0
1002
}
1002
{
1000
MANEDIT
1070
     0
1002
}
1002
{
1000
NOSEL
1070
     0
1002
}
1002
{
1000
BEHIND
1070
     0
1002
}
1002
{
1000
REACTOR
1002
}
1001
GENIUS_GENOBJ-N-CEN_13
1002
{
1000
OWNER
1000
GEN
1002
}
  0
LINE
  5
285
330
26D
100
AcDbEntity
  8
AXIS
100
AcDbLine
 10
12.5
 20
2.9999999999999
 30
0.0
 11
12.5
 21
-4.800000000000103
 31
0.0
1001
GENIUS_GENODEF_13
1002
{
1000
HIER
1070
     0
1002
}
1002
{
1000
MANEDIT
1070
     0
1002
}
1002
{
1000
NOSEL
1070
     0
1002
}
1002
{
1000
BEHIND
1070
     0
1002
}
1002
{
1000
REACTOR
1002
}
1001
GENIUS_GENOBJ-N-CEN_13
1002
{
1000
OWNER
1000
GEN
1002
}
  0
ENDBLK
  5
287
330
26D
100
AcDbEntity
  8
0
100
AcDbBlockEnd
  0
BLOCK
  5
2C9
330
2C5
100
AcDbEntity
  8
0
100
AcDbBlockBegin
  2
525766 ecran entre phase back
 70
     0
 10
0.0
 20
0.0
 30
0.0
  3
525766 ecran entre phase back
  1

  0
LWPOLYLINE
  5
2C6
330
2C5
100
AcDbEntity
  8
INTER PHASE SCREEN
100
AcDbPolyline
 90
        4
 70
     0
 43
0.0
 10
-1.0
 20
20.0
 10
-1.0
 20
128.0
 10
1.0
 20
128.0
 10
1.0
 20
20.0
  0
LWPOLYLINE
  5
2C7
330
2C5
100
AcDbEntity
  8
INTER PHASE SCREEN
100
AcDbPolyline
 90
        4
 70
     1
 43
0.0
 10
-6.349999999999994
 20
20.0
 10
6.349999999999994
 20
20.0
 10
6.349999999999994
 20
0.0
 10
-6.349999999999994
 20
0.0
1001
GENIUS_GENREC_14
1002
{
1000
PYDIR
1011
-6.349999999999994
1021
0.0
1031
0.0
1002
}
1002
{
1000
PXDIR
1011
6.349999999999994
1021
20.0
1031
0.0
1002
}
1002
{
1000
PORI
1011
-6.349999999999994
1021
20.0
1031
0.0
1002
}
1002
{
1000
PINS
1011
-6.349999999999994
1021
20.0
1031
0.0
1002
}
1002
{
1000
PINS2
1011
6.349999999999994
1021
0.0
1031
0.0
1002
}
1002
{
1000
C
1070
     1
1002
}
1001
GENIUS_GENODEF_13
1002
{
1000
HIER
1070
     0
1002
}
1002
{
1000
MANEDIT
1070
     0
1002
}
1002
{
1000
NOSEL
1070
     0
1002
}
1002
{
1000
BEHIND
1070
     0
1002
}
1002
{
1000
REACTOR
1002
}
1001
GENIUS_GENOBJ-N-REC_13
1002
{
1000
OWNER
1000
GEN
1002
}
  0
LINE
  5
2C8
330
2C5
100
AcDbEntity
  8
INTER PHASE SCREEN
100
AcDbLine
 10
-0.9999999999999911
 20
51.5
 30
0.0
 11
1.0
 21
51.5
 31
0.0
  0
ENDBLK
  5
2CA
330
2C5
100
AcDbEntity
  8
0
100
AcDbBlockEnd
  0
BLOCK
  5
2E1
330
2D2
100
AcDbEntity
  8
0
100
AcDbBlockBegin
  2
525766 ecran entre phase front
 70
     0
 10
0.0
 20
0.0
 30
0.0
  3
525766 ecran entre phase front
  1

  0
LWPOLYLINE
  5
2D3
330
2D2
100
AcDbEntity
  8
INTER PHASE SCREEN
100
AcDbPolyline
 90
        4
 70
     1
 43
0.0
 10
3.5
 20
66.55000000000001
 42
-0.9999999999999998
 10
-1.5
 20
66.55000000000001
 10
-1.5
 20
68.35000000000002
 42
-0.9999999999999998
 10
3.5
 20
68.35000000000002
  0
LWPOLYLINE
  5
2D4
330
2D2
100
AcDbEntity
  8
INTER PHASE SCREEN
100
AcDbPolyline
 90
       10
 70
     0
 43
0.0
 10
2.0
 20
62.30000000000001
 10
-2.849999999999994
 20
62.30000000000001
 42
-0.4142135623730953
 10
-3.349999999999994
 20
62.80000000000001
 10
-3.349999999999994
 20
72.10000000000002
 42
-0.4142135623730948
 10
-2.849999999999994
 20
72.60000000000002
 10
4.849999999999994
 20
72.60000000000002
 42
-0.4142135623730949
 10
5.349999999999994
 20
72.10000000000002
 10
5.349999999999994
 20
62.80000000000001
 42
-0.4142135623730951
 10
4.849999999999994
 20
62.30000000000001
 10
2.0
 20
62.30000000000001
  0
LWPOLYLINE
  5
2D5
330
2D2
100
AcDbEntity
  8
INTER PHASE SCREEN
100
AcDbPolyline
 90
       10
 70
     0
 43
0.0
 10
0.0
 20
60.30000000000001
 10
-2.849999999999994
 20
60.30000000000001
 42
-0.4142135623730951
 10
-5.349999999999994
 20
62.80000000000001
 10
-5.349999999999994
 20
72.10000000000002
 42
-0.4142135623730951
 10
-2.849999999999994
 20
74.60000000000002
 10
4.849999999999994
 20
74.60000000000002
 42
-0.4142135623730951
 10
7.349999999999994
 20
72.10000000000002
 10
7.349999999999994
 20
62.80000000000001
 42
-0.4142135623730951
 10
4.849999999999994
 20
60.30000000000001
 10
2.0
 20
60.30000000000001
  0
LINE
  5
2D6
330
2D2
100
AcDbEntity
  8
INTER PHASE SCREEN
100
AcDbLine
 10
2.0
 20
60.30000000000001
 30
0.0
 11
2.0
 21
-60.30000000000001
 31
0.0
  0
LINE
  5
2D7
330
2D2
100
AcDbEntity
  8
INTER PHASE SCREEN
100
AcDbLine
 10
0.0
 20
-60.30000000000001
 30
0.0
 11
0.0
 21
60.30000000000001
 31
0.0
  0
LWPOLYLINE
  5
2D8
330
2D2
100
AcDbEntity
  8
INTER PHASE SCREEN
100
AcDbPolyline
 90
        3
 70
     0
 43
0.0
 10
7.349999999999994
 20
-62.8
 10
7.349999999999994
 20
-57.59999999999998
 10
2.0
 20
-57.59999999999998
  0
LWPOLYLINE
  5
2D9
330
2D2
100
AcDbEntity
  8
INTER PHASE SCREEN
100
AcDbPolyline
 90
       10
 70
     0
 43
0.0
 10
0.0
 20
-60.30000000000001
 10
-2.849999999999994
 20
-60.30000000000001
 42
0.4142135623730951
 10
-5.349999999999994
 20
-62.80000000000001
 10
-5.349999999999994
 20
-72.1
 42
0.4142135623730951
 10
-2.849999999999994
 20
-74.6
 10
4.849999999999994
 20
-74.6
 42
0.4142135623730951
 10
7.349999999999994
 20
-72.1
 10
7.349999999999994
 20
-62.80000000000001
 42
0.4142135623730951
 10
4.849999999999994
 20
-60.30000000000001
 10
2.0
 20
-60.30000000000001
  0
LWPOLYLINE
  5
2DA
330
2D2
100
AcDbEntity
  8
INTER PHASE SCREEN
100
AcDbPolyline
 90
        4
 70
     1
 43
0.0
 10
3.5
 20
-66.55
 42
0.9999999999999998
 10
-1.5
 20
-66.55
 10
-1.5
 20
-68.35
 42
0.9999999999999998
 10
3.5
 20
-68.35
  0
LWPOLYLINE
  5
2DB
330
2D2
100
AcDbEntity
  8
INTER PHASE SCREEN
100
AcDbPolyline
 90
       10
 70
     0
 43
0.0
 10
2.0
 20
-62.30000000000001
 10
-2.849999999999994
 20
-62.3
 42
0.4142135623730953
 10
-3.349999999999994
 20
-62.80000000000001
 10
-3.349999999999994
 20
-72.1
 42
0.4142135623730948
 10
-2.849999999999994
 20
-72.60000000000001
 10
4.849999999999994
 20
-72.60000000000001
 42
0.4142135623730949
 10
5.349999999999994
 20
-72.1
 10
5.349999999999994
 20
-62.80000000000001
 42
0.4142135623730951
 10
4.849999999999994
 20
-62.30000000000001
 10
2.0
 20
-62.30000000000001
  0
LWPOLYLINE
  5
2DC
330
2D2
100
AcDbEntity
  8
INTER PHASE SCREEN
100
AcDbPolyline
 90
        3
 70
     0
 43
0.0
 10
-5.349999999999994
 20
-62.79999999999997
 10
-5.349999999999994
 20
-57.59999999999998
 10
0.0
 20
-57.59999999999998
  0
LINE
  5
2DD
330
2D2
100
AcDbEntity
  8
INTER PHASE SCREEN
100
AcDbLine
 10
0.0
 20
-57.0
 30
0.0
 11
2.0
 21
-57.0
 31
0.0
  0
LWPOLYLINE
  5
2DE
330
2D2
100
AcDbEntity
  8
INTER PHASE SCREEN
100
AcDbPolyline
 90
        3
 70
     0
 43
0.0
 10
7.349999999999994
 20
62.80000000000001
 10
7.349999999999994
 20
57.59999999999997
 10
2.0
 20
57.59999999999997
  0
LWPOLYLINE
  5
2DF
330
2D2
100
AcDbEntity
  8
INTER PHASE SCREEN
100
AcDbPolyline
 90
        3
 70
     0
 43
0.0
 10
-5.349999999999994
 20
62.79999999999995
 10
-5.349999999999994
 20
57.59999999999997
 10
0.0
 20
57.59999999999997
  0
LINE
  5
2E0
330
2D2
100
AcDbEntity
  8
INTER PHASE SCREEN
100
AcDbLine
 10
0.0
 20
57.0
 30
0.0
 11
2.0
 21
57.0
 31
0.0
  0
LINE
  5
952
330
2D2
100
AcDbEntity
  8
AXIS
100
AcDbLine
 10
1.0
 20
67.44999999999999
 30
0.0
 11
1.0
 21
72.94999999999996
 31
0.0
1001
GENIUS_GENOREF_13
1005
957
  0
LINE
  5
953
330
2D2
100
AcDbEntity
  8
AXIS
100
AcDbLine
 10
1.0
 20
67.44999999999999
 30
0.0
 11
6.5
 21
67.44999999999999
 31
0.0
1001
GENIUS_GENOREF_13
1005
957
  0
CIRCLE
  5
954
330
2D2
100
AcDbEntity
  8
DEVICE FIXING HOLES
100
AcDbCircle
 10
1.0
 20
67.44999999999999
 30
0.0
 40
2.5
  0
LINE
  5
955
330
2D2
100
AcDbEntity
  8
AXIS
100
AcDbLine
 10
1.0
 20
67.44999999999999
 30
0.0
 11
1.0
 21
61.94999999999999
 31
0.0
1001
GENIUS_GENOREF_13
1005
957
  0
LINE
  5
956
330
2D2
100
AcDbEntity
  8
AXIS
100
AcDbLine
 10
1.0
 20
67.44999999999999
 30
0.0
 11
-4.5
 21
67.44999999999999
 31
0.0
1001
GENIUS_GENOREF_13
1005
957
  0
POINT
  5
957
330
2D2
100
AcDbEntity
  8
0
 60
     1
100
AcDbPoint
 10
449.7574432361719
 20
-34.42273523308268
 30
0.0
1001
GENIUS_GENOENT_13
1002
{
1000
MYREF
1005
957
1002
}
1002
{
1000
GRP
1005
0
1002
}
1001
GENIUS_GENOLIS_13
1002
{
1000
ENT
1005
955
1005
956
1005
952
1005
953
1002
}
1001
GENIUS_GENODEF_13
1002
{
1000
HIER
1070
    10
1002
}
1002
{
1000
MANEDIT
1070
     0
1002
}
1002
{
1000
NOSEL
1070
     0
1002
}
1002
{
1000
BEHIND
1070
     0
1002
}
1002
{
1000
OTHER
1070
     0
1002
}
1002
{
1000
REACTOR
1002
}
1001
GENIUS_GENOBJ-N-CRS_13
1002
{
1000
OWNER
1000
GEN
1002
}
  0
LINE
  5
958
330
2D2
100
AcDbEntity
  8
AXIS
100
AcDbLine
 10
1.000000000000056
 20
-67.44999999999999
 30
0.0
 11
-4.499999999999943
 21
-67.44999999999999
 31
0.0
1001
GENIUS_GENOREF_13
1005
95D
  0
LINE
  5
959
330
2D2
100
AcDbEntity
  8
AXIS
100
AcDbLine
 10
1.000000000000056
 20
-67.44999999999999
 30
0.0
 11
1.000000000000056
 21
-61.94999999999999
 31
0.0
1001
GENIUS_GENOREF_13
1005
95D
  0
CIRCLE
  5
95A
330
2D2
100
AcDbEntity
  8
DEVICE FIXING HOLES
100
AcDbCircle
 10
1.000000000000056
 20
-67.44999999999999
 30
0.0
 40
2.5
  0
LINE
  5
95B
330
2D2
100
AcDbEntity
  8
AXIS
100
AcDbLine
 10
1.000000000000056
 20
-67.44999999999999
 30
0.0
 11
6.500000000000056
 21
-67.44999999999999
 31
0.0
1001
GENIUS_GENOREF_13
1005
95D
  0
LINE
  5
95C
330
2D2
100
AcDbEntity
  8
AXIS
100
AcDbLine
 10
1.000000000000056
 20
-67.44999999999999
 30
0.0
 11
1.000000000000056
 21
-72.94999999999996
 31
0.0
1001
GENIUS_GENOREF_13
1005
95D
  0
POINT
  5
95D
330
2D2
100
AcDbEntity
  8
0
 60
     1
100
AcDbPoint
 10
449.7574432361718
 20
213.0837201504036
 30
0.0
1001
GENIUS_GENOENT_13
1002
{
1000
MYREF
1005
95D
1002
}
1002
{
1000
GRP
1005
0
1002
}
1001
GENIUS_GENOLIS_13
1002
{
1000
ENT
1005
959
1005
958
1005
95C
1005
95B
1002
}
1001
GENIUS_GENODEF_13
1002
{
1000
HIER
1070
    10
1002
}
1002
{
1000
MANEDIT
1070
     0
1002
}
1002
{
1000
NOSEL
1070
     0
1002
}
1002
{
1000
BEHIND
1070
     0
1002
}
1002
{
1000
OTHER
1070
     0
1002
}
1002
{
1000
REACTOR
1002
}
1001
GENIUS_GENOBJ-N-CRS_13
1002
{
1000
OWNER
1000
GEN
1002
}
  0
ENDBLK
  5
2E2
330
2D2
100
AcDbEntity
  8
0
100
AcDbBlockEnd
  0
BLOCK
  5
2EC
330
2E9
100
AcDbEntity
  8
0
100
AcDbBlockBegin
  2
525766 ecran entre phase right
 70
     0
 10
0.0
 20
0.0
 30
0.0
  3
525766 ecran entre phase right
  1

  0
LWPOLYLINE
  5
2EA
330
2E9
100
AcDbEntity
  8
INTER PHASE SCREEN
100
AcDbPolyline
 90
       16
 70
     0
 43
0.0
 10
-117.7999999999999
 20
57.00000000000001
 10
-51.5
 20
57.00000000000001
 10
-51.5
 20
58.3
 42
-0.4142135623730951
 10
-49.5
 20
60.3
 10
-21.0
 20
60.3
 42
0.4142135623730951
 10
-20.0
 20
61.29999999999999
 10
-20.0
 20
74.6
 10
0.0
 20
74.6
 10
0.0
 20
-74.6
 10
-20.0
 20
-74.6
 10
-20.0
 20
-61.3
 42
0.414213562373095
 10
-21.0
 20
-60.30000000000001
 10
-49.50000000000001
 20
-60.3
 42
-0.4142135623730951
 10
-51.50000000000002
 20
-58.3
 10
-51.5
 20
-57.0
 10
-117.7999999999999
 20
-57.0
  0
LWPOLYLINE
  5
2EB
330
2E9
100
AcDbEntity
  8
INTER PHASE SCREEN
100
AcDbPolyline
 90
        4
 70
     0
 43
0.0
 10
-117.7999999999999
 20
57.00000000000001
 10
-128.0
 20
30.98704230856505
 10
-128.0
 20
-30.98704230856505
 10
-117.7999999999999
 20
-57.0
  0
LINE
  5
991
330
2E9
100
AcDbEntity
  8
AXIS
100
AcDbLine
 10
3.0
 20
67.45
 30
0.0
 11
-23.0
 21
67.45
 31
0.0
1001
GENIUS_GENODEF_13
1002
{
1000
HIER
1070
     0
1002
}
1002
{
1000
MANEDIT
1070
     0
1002
}
1002
{
1000
NOSEL
1070
     0
1002
}
1002
{
1000
BEHIND
1070
     0
1002
}
1002
{
1000
OTHER
1070
     0
1002
}
1002
{
1000
REACTOR
1002
}
1001
GENIUS_GENOBJ-N-CEN_13
1002
{
1000
OWNER
1000
GEN
1002
}
  0
LINE
  5
992
330
2E9
100
AcDbEntity
  8
AXIS
100
AcDbLine
 10
3.0
 20
-67.45
 30
0.0
 11
-23.0
 21
-67.45
 31
0.0
1001
GENIUS_GENODEF_13
1002
{
1000
HIER
1070
     0
1002
}
1002
{
1000
MANEDIT
1070
     0
1002
}
1002
{
1000
NOSEL
1070
     0
1002
}
1002
{
1000
BEHIND
1070
     0
1002
}
1002
{
1000
OTHER
1070
     0
1002
}
1002
{
1000
REACTOR
1002
}
1001
GENIUS_GENOBJ-N-CEN_13
1002
{
1000
OWNER
1000
GEN
1002
}
  0
ENDBLK
  5
2ED
330
2E9
100
AcDbEntity
  8
0
100
AcDbBlockEnd
  0
BLOCK
  5
7AA
330
79C
100
AcDbEntity
  8
0
100
AcDbBlockBegin
  2
HANDLE TYPE G2 BACK UL
 70
     0
 10
0.0
 20
0.0
 30
0.0
  3
HANDLE TYPE G2 BACK UL
  1

  0
LINE
  5
79D
330
79C
100
AcDbEntity
  8
G2 EXTERN_HANDLE
  6
AM_ISO08W050
 62
     4
100
AcDbLine
 10
0.0000141903909707
 20
-13.60532692906849
 30
0.0
 11
0.0000141903909849
 21
84.23336386147594
 31
0.0
  0
LWPOLYLINE
  5
79E
330
79C
100
AcDbEntity
  8
G2 MOVING
100
AcDbPolyline
 90
        4
 70
     1
 43
0.0
 10
-8.999999999997839
 20
59.5
 10
9.000000000003069
 20
59.5
 10
9.000000000003069
 20
29.5
 10
-8.999999999997839
 20
29.5
1001
GENIUS_GENREC_14
1002
{
1000
PYDIR
1011
-8.999999999997839
1021
29.5
1031
0.0
1002
}
1002
{
1000
PXDIR
1011
9.000000000003069
1021
59.5
1031
0.0
1002
}
1002
{
1000
PORI
1011
-8.999999999997839
1021
59.5
1031
0.0
1002
}
1002
{
1000
PINS
1011
-8.999999999997839
1021
59.5
1031
0.0
1002
}
1002
{
1000
PINS2
1011
9.000000000003069
1021
29.5
1031
0.0
1002
}
1002
{
1000
C
1070
     1
1002
}
1001
GENIUS_GENODEF_13
1002
{
1000
HIER
1070
     0
1002
}
1002
{
1000
MANEDIT
1070
     0
1002
}
1002
{
1000
NOSEL
1070
     0
1002
}
1002
{
1000
BEHIND
1070
     0
1002
}
1002
{
1000
REACTOR
1002
}
1001
GENIUS_GENOBJ-N-REC_13
1002
{
1000
OWNER
1000
GEN
1002
}
  0
LWPOLYLINE
  5
79F
330
79C
100
AcDbEntity
  8
G2 EXTERN_HANDLE
100
AcDbPolyline
 90
        6
 70
     1
 43
0.0
 10
26.49999996442
 20
15.0
 10
-36.5
 20
15.0
 10
-36.5
 20
0.0
 10
36.5
 20
0.0
 10
36.5
 20
9.226497292461772
 10
26.49999996442
 20
15.0
  0
LINE
  5
7A0
330
79C
100
AcDbEntity
  8
G2 EXTERN_HANDLE
100
AcDbLine
 10
36.5
 20
9.226497292461772
 30
0.0
 11
-36.5
 21
9.226497287561869
 31
0.0
  0
LINE
  5
7A1
330
79C
100
AcDbEntity
  8
G2 EXTERN_HANDLE
100
AcDbLine
 10
-9.99999999999693
 20
9.226497289340613
 30
0.0
 11
-9.99999999999693
 21
15.0
 31
0.0
  0
LINE
  5
7A2
330
79C
100
AcDbEntity
  8
G2 EXTERN_HANDLE
100
AcDbLine
 10
-13.77349218750015
 20
15.0
 30
0.0
 11
-9.99999999999693
 21
9.226497289340613
 31
0.0
  0
LWPOLYLINE
  5
7A3
330
79C
100
AcDbEntity
  8
G2 EXTERN_HANDLE
100
AcDbPolyline
 90
        4
 70
     0
 43
0.0
 10
-13.25
 20
59.5
 10
-13.25
 20
41.5
 10
24.92488716122807
 20
41.5
 10
24.92488716122807
 20
15.0
  0
LWPOLYLINE
  5
7A4
330
79C
100
AcDbEntity
  8
G2 EXTERN_HANDLE
100
AcDbPolyline
 90
        4
 70
     1
 43
0.0
 10
4.5
 20
54.06155281280883
 42
1.780776406404415
 10
0.5
 20
47.5
 10
16.5
 20
47.5
 42
1.780776406404416
 10
12.5
 20
54.06155281280883
 42
0.6096117967977929
  0
LWPOLYLINE
  5
7A5
330
79C
100
AcDbEntity
  8
G2 EXTERN_HANDLE
100
AcDbPolyline
 90
        4
 70
     0
 43
0.0
 10
-21.5
 20
59.5
 10
-21.5
 20
61.5
 42
-0.9999999999999998
 10
-6.5
 20
61.5
 10
-6.5
 20
59.5
  0
LWPOLYLINE
  5
7A6
330
79C
100
AcDbEntity
  8
G2 EXTERN_HANDLE
100
AcDbPolyline
 90
        4
 70
     0
 43
0.0
 10
24.92488716122806
 20
15.0
 10
-26.5
 20
15.0
 10
-26.5
 20
59.5
 10
-5.196152422707996
 20
59.5
1001
GENIUS_GENREC_14
1002
{
1000
PYDIR
1011
-26.5
1021
15.0
1031
0.0
1002
}
1002
{
1000
PXDIR
1011
70.5
1021
59.5
1031
0.0
1002
}
1002
{
1000
PORI
1011
-26.5
1021
59.5
1031
0.0
1002
}
1002
{
1000
PINS
1011
-26.5
1021
59.5
1031
0.0
1002
}
1002
{
1000
PINS2
1011
70.5
1021
15.0
1031
0.0
1002
}
1002
{
1000
C
1070
     1
1002
}
1001
GENIUS_GENODEF_13
1002
{
1000
HIER
1070
     0
1002
}
1002
{
1000
MANEDIT
1070
     0
1002
}
1002
{
1000
NOSEL
1070
     0
1002
}
1002
{
1000
BEHIND
1070
     0
1002
}
1002
{
1000
REACTOR
1002
}
1001
GENIUS_GENOBJ-N-REC_13
1002
{
1000
OWNER
1000
GEN
1002
}
  0
POINT
  5
7A7
330
79C
100
AcDbEntity
  8
POINT D'ACCROCHAGE
100
AcDbPoint
 10
0.0
 20
0.0
 30
0.0
  0
LINE
  5
7A8
330
79C
100
AcDbEntity
  8
G2 EXTERN_HANDLE
100
AcDbLine
 10
-21.5
 20
61.5
 30
0.0
 11
-6.5
 21
61.5
 31
0.0
  0
LWPOLYLINE
  5
7A9
330
79C
100
AcDbEntity
  8
G2 EXTERN_HANDLE
100
AcDbPolyline
 90
        6
 70
     0
 43
0.0
 10
-5.196152422708664
 20
59.49999999999977
 10
126.4999999999994
 20
59.50000000000113
 10
126.4999999999996
 20
29.50000000000114
 10
24.92488716122763
 20
29.5
 10
24.92488716122751
 20
41.5
 10
-13.25000000000271
 20
41.5
  0
ENDBLK
  5
7AB
330
79C
100
AcDbEntity
  8
0
100
AcDbBlockEnd
  0
BLOCK
  5
7CF
330
7BD
100
AcDbEntity
  8
0
100
AcDbBlockBegin
  2
HANDLE TYPE G2 FRONT UL
 70
     0
 10
0.0
 20
0.0
 30
0.0
  3
HANDLE TYPE G2 FRONT UL
  1

  0
LWPOLYLINE
  5
7BE
330
7BD
100
AcDbEntity
  8
G2 EXTERN_HANDLE
100
AcDbPolyline
 90
        6
 70
     0
 43
0.0
 10
-13.24999999999311
 20
22.94967320028945
 10
-5.196152422699405
 20
9.00000000000136
 10
126.5000000000073
 20
8.999999999999534
 10
126.5000000000069
 20
-9.000000000000458
 10
-5.196152422699405
 20
-8.999999999998639
 10
-13.24999999999311
 20
-22.94967320028673
  0
LWPOLYLINE
  5
7BF
330
7BD
100
AcDbEntity
  8
G2 EXTERN_HANDLE
100
AcDbPolyline
 90
        5
 70
     0
 43
0.0
 10
36.50000000000689
 20
9.000000000000678
 10
36.5000000000069
 20
36.50000000000273
 10
26.49999996442701
 20
36.50000000000273
 10
-0.0000000000017195
 20
36.49999999999252
 42
2.044076229567622
 10
35.37301231163443
 20
-8.999999999999975
  0
LINE
  5
7C0
330
7BD
100
AcDbEntity
  8
G2 EXTERN_HANDLE
  6
AM_ISO08W050
 62
     4
100
AcDbLine
 10
-47.81139787235091
 20
0.0000000000000036
 30
0.0
 11
140.2140754834654
 21
-0.0000000000000107
 31
0.0
  0
LINE
  5
7C1
330
7BD
100
AcDbEntity
  8
G2 MOVING
  6
AM_ISO08W050
 62
     4
100
AcDbLine
 10
0.0000000000005329
 20
3.702834004457329
 30
0.0
 11
-0.0000000000198312
 21
-140.2140754834295
 31
0.0
  0
LWPOLYLINE
  5
7C2
330
7BD
100
AcDbEntity
  8
G2 MOVING
100
AcDbPolyline
 90
        4
 70
     1
 43
0.0
 10
8.999999999982669
 20
-126.4999999999731
 10
-9.00000000001733
 20
-126.4999999999688
 10
-9.000000000001186
 20
-56.49999999996885
 10
8.999999999999609
 20
-56.49999999997317
  0
ARC
  5
7C3
330
7BD
100
AcDbEntity
  8
G2 EXTERN_HANDLE
100
AcDbCircle
 10
0.0000000000087041
 20
0.0000000000177351
 30
0.0
 40
26.49999999998713
100
AcDbArc
 50
19.85388502641149
 51
340.146114973506
  0
LINE
  5
7C4
330
7BD
100
AcDbEntity
  8
G2 EXTERN_HANDLE
100
AcDbLine
 10
-13.77349218749298
 20
-33.80149276231123
 30
0.0
 11
-9.999932670642856
 21
-24.5408097807831
 31
0.0
  0
CIRCLE
  5
7C5
330
7BD
100
AcDbEntity
  8
G2 EXTERN_HANDLE
100
AcDbCircle
 10
-13.99999999999129
 20
0.0
 30
0.0
 40
7.5
  0
LINE
  5
7C6
330
7BD
100
AcDbEntity
  8
G2 EXTERN_HANDLE
100
AcDbLine
 10
26.49999996442701
 20
36.50000000000273
 30
0.0
 11
26.499999964427
 21
9.000000000000905
 31
0.0
  0
LWPOLYLINE
  5
7C7
330
7BD
100
AcDbEntity
  8
G2 EXTERN_HANDLE
 62
     1
100
AcDbPolyline
 90
        6
 70
     1
 43
0.0
 10
26.28301399399749
 20
27.00000000001762
 10
0.2830140295772665
 20
27.00000000001768
 42
0.1941036802681553
 10
-18.45204174865056
 20
19.44216255943206
 10
-24.81682135225031
 20
25.80694216303186
 42
-0.1953051236923888
 10
0.2830140295772097
 20
36.00000000001774
 10
26.28301399399772
 20
36.00000000001575
  0
TEXT
  5
7C8
330
7BD
100
AcDbEntity
  8
G2 EXTERN_HANDLE
 62
     2
100
AcDbText
 10
9.472806212293512
 20
27.96884758895345
 30
0.0
 40
4.0
  1
ON
 50
90.0
100
AcDbText
  0
HATCH
  5
7C9
330
7BD
100
AcDbEntity
  8
G2 EXTERN_HANDLE
100
AcDbHatch
 10
0.0
 20
0.0
 30
0.0
210
0.0
220
0.0
230
1.0
  2
SOLID
 70
     1
 71
     0
 91
        1
 92
        1
 93
        4
 72
     1
 10
0.2830140295772097
 20
34.44983057872923
 11
0.2830140295772097
 21
28.44983057872923
 72
     1
 10
0.2830140295772097
 20
28.44983057872923
 11
1.315990768209537
 21
28.44983057872923
 72
     1
 10
1.315990768209537
 20
28.44983057872923
 11
1.315990768209537
 21
34.44983057872923
 72
     1
 10
1.315990768209537
 20
34.44983057872923
 11
0.2830140295772097
 21
34.44983057872923
 97
        0
 75
     0
 76
     1
 98
        1
 10
-491.3373923786026
 20
-325.2545674136329
1001
GENIUS_GENODEF_13
1002
{
1000
HIER
1070
     0
1002
}
1002
{
1000
MANEDIT
1070
     0
1002
}
1002
{
1000
NOSEL
1070
     0
1002
}
1002
{
1000
BEHIND
1070
     0
1002
}
1002
{
1000
REACTOR
1002
}
1001
GENIUS_GENOBJ-N-HTC_13
1002
{
1000
OWNER
1000
GEN
1002
}
1001
GENIUS_GENHATCH_13
1002
{
1000
DATA
1040
0.0
1042
1.0
1000
SOLID
1070
     0
1011
0.8669675578432887
1021
31.57873185215658
1031
0.0
1002
}
1002
{
1000
UCS
1010
0.0
1020
0.0
1030
0.0
1010
1.0
1020
0.0
1030
0.0
1010
0.0
1020
1.0
1030
0.0
1002
}
  0
HATCH
  5
7CA
330
7BD
100
AcDbEntity
  8
G2 EXTERN_HANDLE
100
AcDbHatch
 10
0.0
 20
0.0
 30
0.0
210
0.0
220
0.0
230
1.0
  2
SOLID
 70
     1
 71
     0
 91
        1
 92
        1
 93
        4
 72
     1
 10
0.2830140295772097
 20
28.44983057872923
 11
0.2830140295772097
 21
34.44983057872923
 72
     1
 10
0.2830140295772097
 20
34.44983057872923
 11
-0.6840092317904621
 21
34.44983057872923
 72
     1
 10
-0.6840092317904621
 20
34.44983057872923
 11
-0.6840092317904621
 21
28.44983057872923
 72
     1
 10
-0.6840092317904621
 20
28.44983057872923
 11
0.2830140295772097
 21
28.44983057872923
 97
        0
 75
     0
 76
     1
 98
        1
 10
-491.3373923786026
 20
-325.2545674136329
1001
GENIUS_GENODEF_13
1002
{
1000
HIER
1070
     0
1002
}
1002
{
1000
MANEDIT
1070
     0
1002
}
1002
{
1000
NOSEL
1070
     0
1002
}
1002
{
1000
BEHIND
1070
     0
1002
}
1002
{
1000
REACTOR
1002
}
1001
GENIUS_GENOBJ-N-HTC_13
1002
{
1000
OWNER
1000
GEN
1002
}
1001
GENIUS_GENHATCH_13
1002
{
1000
DATA
1040
0.0
1042
1.0
1000
SOLID
1070
     0
1011
-0.2050797275194256
1021
31.82874300143203
1031
0.0
1002
}
1002
{
1000
UCS
1010
0.0
1020
0.0
1030
0.0
1010
1.0
1020
0.0
1030
0.0
1010
0.0
1020
1.0
1030
0.0
1002
}
  0
LWPOLYLINE
  5
7CB
330
7BD
100
AcDbEntity
  8
G2 EXTERN_HANDLE
100
AcDbPolyline
 90
        4
 70
     1
 43
0.0
 10
-0.6840092317904621
 20
28.44983057872923
 10
1.315990768209537
 20
28.44983057872923
 10
1.315990768209537
 20
34.44983057872923
 10
-0.6840092317904621
 20
34.44983057872923
1001
GENIUS_GENREC_14
1002
{
1000
PYDIR
1011
-0.6840092317904621
1021
34.44983057872923
1031
0.0
1002
}
1002
{
1000
PXDIR
1011
1.315990768209537
1021
28.44983057872923
1031
0.0
1002
}
1002
{
1000
PORI
1011
-0.6840092317904621
1021
28.44983057872923
1031
0.0
1002
}
1002
{
1000
PINS
1011
-0.6840092317904621
1021
28.44983057872923
1031
0.0
1002
}
1002
{
1000
HVAL
1000
6
1002
}
1002
{
1000
H
1070
     2
1002
}
1002
{
1000
WVAL
1000
2
1002
}
1002
{
1000
W
1070
     2
1002
}
1002
{
1000
C
1070
     1
1002
}
1001
GENIUS_GENODEF_13
1002
{
1000
HIER
1070
     0
1002
}
1002
{
1000
MANEDIT
1070
     0
1002
}
1002
{
1000
NOSEL
1070
     0
1002
}
1002
{
1000
BEHIND
1070
     0
1002
}
1002
{
1000
REACTOR
1002
}
1001
GENIUS_GENOBJ-N-REC_13
1002
{
1000
OWNER
1000
GEN
1002
}
  0
LWPOLYLINE
  5
7CC
330
7BD
100
AcDbEntity
  8
G2 EXTERN_HANDLE
100
AcDbPolyline
 90
        2
 70
     1
 43
1.0
 10
-33.46354319007286
 20
0.0000000000177316
 42
1.0
 10
-28.46354319007286
 20
0.0000000000177316
 42
1.0
  0
TEXT
  5
7CD
330
7BD
100
AcDbEntity
  8
G2 EXTERN_HANDLE
 62
     2
100
AcDbText
 10
-28.17109262932751
 20
4.578777525153665
 30
0.0
 40
4.0
  1
OFF
 50
80.00000000000147
100
AcDbText
  0
LWPOLYLINE
  5
7CE
330
7BD
100
AcDbEntity
  8
G2 EXTERN_HANDLE
 62
     3
100
AcDbPolyline
 90
        4
 70
     1
 43
0.0
 10
-10.36688360900603
 20
-24.8108782651243
 42
-0.5244987300077298
 10
-19.15914852983706
 20
18.7350557782455
 10
-25.52392813343697
 20
25.09983538184537
 42
0.527454332279895
 10
-13.76352400327027
 20
-33.14656496970076
  0
ENDBLK
  5
7D0
330
7BD
100
AcDbEntity
  8
0
100
AcDbBlockEnd
  0
BLOCK
  5
7E2
330
7D7
100
AcDbEntity
  8
0
100
AcDbBlockBegin
  2
HANDLE TYPE G2 RIGHT UL
 70
     0
 10
0.0
 20
0.0
 30
0.0
  3
HANDLE TYPE G2 RIGHT UL
  1

  0
LINE
  5
7D8
330
7D7
100
AcDbEntity
  8
G2 EXTERN_HANDLE
  6
AM_ISO08W050
 62
     4
100
AcDbLine
 10
8.991079526152589
 20
0.0
 30
0.0
 11
-79.55668536736675
 21
0.0
 31
0.0
  0
LWPOLYLINE
  5
7D9
330
7D7
100
AcDbEntity
  8
G2 EXTERN_HANDLE
100
AcDbPolyline
 90
        3
 70
     0
 43
0.0
 10
-11.13434338160414
 20
36.5
 10
-11.13434338160414
 20
-36.5
 10
-16.90784608914237
 20
-26.5
  0
LWPOLYLINE
  5
7DA
330
7D7
100
AcDbEntity
  8
G2 EXTERN_HANDLE
100
AcDbPolyline
 90
        3
 70
     0
 43
0.0
 10
-16.90784608914509
 20
26.5
 10
-43.4078460891451
 20
26.5
 10
-43.4078460891451
 20
9.000000000000625
  0
LWPOLYLINE
  5
7DB
330
7D7
100
AcDbEntity
  8
G2 EXTERN_HANDLE
100
AcDbPolyline
 90
        6
 70
     0
 43
0.0
 10
-43.4078460891451
 20
22.94967320028797
 10
-61.40784608914509
 20
22.94967320028797
 10
-61.40784608914509
 20
8.999999999997953
 10
-61.40784608914509
 20
-9.0
 10
-61.40784608914509
 20
-22.94967320028809
 10
-43.4078460891451
 20
-22.94967320028809
  0
LWPOLYLINE
  5
7DC
330
7D7
100
AcDbEntity
  8
G2 EXTERN_HANDLE
100
AcDbPolyline
 90
        6
 70
     1
 43
0.0
 10
-16.90784608914237
 20
36.5
 10
-16.90784608914237
 20
-32.72644048314999
 10
-16.90784608914237
 20
-36.5
 10
-1.907846089142367
 20
-36.5
 10
-1.907846089142367
 20
36.5
 10
-11.13434338160414
 20
36.5
  0
LWPOLYLINE
  5
7DD
330
7D7
100
AcDbEntity
  8
G2 EXTERN_HANDLE
100
AcDbPolyline
 90
        4
 70
     0
 43
0.0
 10
-61.40784608914509
 20
-9.000000000002046
 10
-16.90784608914237
 20
-8.999999999995452
 10
-16.90784608914237
 20
9.000000000004547
 10
-61.40784608914509
 20
8.999999999997953
  0
LINE
  5
7DE
330
7D7
100
AcDbEntity
  8
G2 EXTERN_HANDLE
100
AcDbLine
 10
-63.4078460891451
 20
-7.5
 30
0.0
 11
-63.4078460891451
 21
7.5
 31
0.0
  0
LWPOLYLINE
  5
7DF
330
7D7
100
AcDbEntity
  8
G2 EXTERN_HANDLE
100
AcDbPolyline
 90
        4
 70
     0
 43
0.0
 10
-61.40784608914509
 20
7.5
 10
-63.4078460891451
 20
7.5
 42
0.9999999999999998
 10
-63.4078460891451
 20
-7.5
 10
-61.40784608914509
 20
-7.5
  0
LWPOLYLINE
  5
7E0
330
7D7
100
AcDbEntity
  8
G2 EXTERN_HANDLE
100
AcDbPolyline
 90
        3
 70
     0
 43
0.0
 10
-43.4078460891451
 20
-8.999999999999374
 10
-43.4078460891451
 20
-26.5
 10
-16.90784608914509
 20
-26.5
  0
LWPOLYLINE
  5
7E1
330
7D7
100
AcDbEntity
  8
G2 MOVING
100
AcDbPolyline
 90
        4
 70
     0
 43
0.0
 10
-61.40784608914504
 20
-22.94967320028809
 10
-61.40784608914663
 20
-126.4999999628289
 10
-31.40784608914663
 20
-126.4999999628294
 10
-31.40784608914538
 20
-26.50000000000003
  0
ENDBLK
  5
7E3
330
7D7
100
AcDbEntity
  8
0
100
AcDbBlockEnd
  0
BLOCK
  5
A41
330
A27
100
AcDbEntity
  8
0
100
AcDbBlockBegin
  2
d31 d4p5 door drilling
 70
     0
 10
0.0
 20
0.0
 30
0.0
  3
d31 d4p5 door drilling
  1

  0
LINE
  5
A28
330
A27
100
AcDbEntity
  8
HANDLE FIXING HOLES
  6
GEN7
 62
     4
100
AcDbLine
 10
0.0
 20
0.0
 30
0.0
 11
0.0
 21
-21.12828036049541
 31
0.0
  0
CIRCLE
  5
A29
330
A27
100
AcDbEntity
  8
HANDLE FIXING HOLES
100
AcDbCircle
 10
0.0
 20
0.0
 30
0.0
 40
15.5
  0
LINE
  5
A2A
330
A27
100
AcDbEntity
  8
HANDLE FIXING HOLES
  6
GEN7
 62
     4
100
AcDbLine
 10
0.0
 20
-25.0
 30
0.0
 11
7.447003500820756
 21
-25.0
 31
0.0
  0
LINE
  5
A2B
330
A27
100
AcDbEntity
  8
HANDLE FIXING HOLES
  6
GEN7
 62
     4
100
AcDbLine
 10
0.0
 20
-25.0
 30
0.0
 11
0.0
 21
-17.55299649917879
 31
0.0
  0
LINE
  5
A2C
330
A27
100
AcDbEntity
  8
HANDLE FIXING HOLES
  6
GEN7
 62
     4
100
AcDbLine
 10
0.0
 20
-25.0
 30
0.0
 11
-7.447003500820756
 21
-25.0
 31
0.0
  0
LINE
  5
A2D
330
A27
100
AcDbEntity
  8
HANDLE FIXING HOLES
  6
GEN7
 62
     4
100
AcDbLine
 10
0.0
 20
-25.0
 30
0.0
 11
0.0
 21
-32.44700350082121
 31
0.0
  0
CIRCLE
  5
A2E
330
A27
100
AcDbEntity
  8
HANDLE FIXING HOLES
100
AcDbCircle
 10
0.0
 20
-25.0
 30
0.0
 40
2.25
  0
LINE
  5
A2F
330
A27
100
AcDbEntity
  8
HANDLE FIXING HOLES
  6
GEN7
 62
     4
100
AcDbLine
 10
0.0
 20
0.0
 30
0.0
 11
21.12828036049541
 21
0.0
 31
0.0
  0
LINE
  5
A30
330
A27
100
AcDbEntity
  8
HANDLE FIXING HOLES
  6
GEN7
 62
     4
100
AcDbLine
 10
0.0
 20
25.0
 30
0.0
 11
0.0
 21
32.92859740514723
 31
0.0
  0
LINE
  5
A31
330
A27
100
AcDbEntity
  8
HANDLE FIXING HOLES
  6
GEN7
 62
     4
100
AcDbLine
 10
0.0
 20
0.0
 30
0.0
 11
0.0
 21
21.12828036049541
 31
0.0
  0
LINE
  5
A32
330
A27
100
AcDbEntity
  8
HANDLE FIXING HOLES
  6
GEN7
 62
     4
100
AcDbLine
 10
0.0
 20
0.0
 30
0.0
 11
-21.12828036049541
 21
0.0
 31
0.0
  0
LINE
  5
A33
330
A27
100
AcDbEntity
  8
HANDLE FIXING HOLES
  6
GEN7
 62
     4
100
AcDbLine
 10
0.0
 20
25.0
 30
0.0
 11
7.928597405147229
 21
25.0
 31
0.0
  0
LINE
  5
A34
330
A27
100
AcDbEntity
  8
HANDLE FIXING HOLES
  6
GEN7
 62
     4
100
AcDbLine
 10
0.0
 20
25.0
 30
0.0
 11
-7.928597405147229
 21
25.0
 31
0.0
  0
LINE
  5
A35
330
A27
100
AcDbEntity
  8
HANDLE FIXING HOLES
  6
GEN7
 62
     4
100
AcDbLine
 10
0.0
 20
25.0
 30
0.0
 11
0.0
 21
17.07140259485277
 31
0.0
  0
LINE
  5
A36
330
A27
100
AcDbEntity
  8
HANDLE FIXING HOLES
  6
GEN7
 62
     4
100
AcDbLine
 10
-25.0
 20
0.0
 30
0.0
 11
-17.90807048100487
 21
0.0
 31
0.0
  0
LINE
  5
A37
330
A27
100
AcDbEntity
  8
HANDLE FIXING HOLES
  6
GEN7
 62
     4
100
AcDbLine
 10
-25.0
 20
0.0
 30
0.0
 11
-25.0
 21
7.091929518995129
 31
0.0
  0
LINE
  5
A38
330
A27
100
AcDbEntity
  8
HANDLE FIXING HOLES
  6
GEN7
 62
     4
100
AcDbLine
 10
-25.0
 20
0.0
 30
0.0
 11
-32.09192951899513
 21
0.0
 31
0.0
  0
LINE
  5
A39
330
A27
100
AcDbEntity
  8
HANDLE FIXING HOLES
  6
GEN7
 62
     4
100
AcDbLine
 10
-25.0
 20
0.0
 30
0.0
 11
-25.0
 21
-7.091929518995129
 31
0.0
  0
CIRCLE
  5
A3A
330
A27
100
AcDbEntity
  8
HANDLE FIXING HOLES
100
AcDbCircle
 10
0.0
 20
25.0
 30
0.0
 40
2.25
  0
CIRCLE
  5
A3B
330
A27
100
AcDbEntity
  8
HANDLE FIXING HOLES
100
AcDbCircle
 10
-25.0
 20
0.0
 30
0.0
 40
2.25
  0
LINE
  5
A3C
330
A27
100
AcDbEntity
  8
HANDLE FIXING HOLES
  6
GEN7
 62
     4
100
AcDbLine
 10
25.0
 20
0.0
 30
0.0
 11
31.79123347922723
 21
0.0
 31
0.0
  0
LINE
  5
A3D
330
A27
100
AcDbEntity
  8
HANDLE FIXING HOLES
  6
GEN7
 62
     4
100
AcDbLine
 10
25.0
 20
0.0
 30
0.0
 11
25.0
 21
6.79123347922723
 31
0.0
  0
LINE
  5
A3E
330
A27
100
AcDbEntity
  8
HANDLE FIXING HOLES
  6
GEN7
 62
     4
100
AcDbLine
 10
25.0
 20
0.0
 30
0.0
 11
18.20876652077277
 21
0.0
 31
0.0
  0
LINE
  5
A3F
330
A27
100
AcDbEntity
  8
HANDLE FIXING HOLES
  6
GEN7
 62
     4
100
AcDbLine
 10
25.0
 20
0.0
 30
0.0
 11
25.0
 21
-6.79123347922723
 31
0.0
  0
CIRCLE
  5
A40
330
A27
100
AcDbEntity
  8
HANDLE FIXING HOLES
100
AcDbCircle
 10
25.0
 20
0.0
 30
0.0
 40
2.25
  0
ENDBLK
  5
A42
330
A27
100
AcDbEntity
  8
0
100
AcDbBlockEnd
  0
BLOCK
  5
A9F
330
A98
100
AcDbEntity
  8
0
100
AcDbBlockBegin
  2
*D14
 70
     1
 10
0.0
 20
0.0
 30
0.0
  3
*D14
  1

  0
LINE
  5
1282
330
A98
100
AcDbEntity
  8
QUOTATION
100
AcDbLine
 10
560.8069630309675
 20
119.6023766700522
 30
0.0
 11
570.0627455703802
 21
129.4067154421006
 31
0.0
  0
LINE
  5
1283
330
A98
100
AcDbEntity
  8
QUOTATION
100
AcDbLine
 10
570.0627455703802
 20
129.4067154421006
 30
0.0
 11
603.4526950640414
 21
129.4067154421006
 31
0.0
  0
SOLID
  5
1284
330
A98
100
AcDbEntity
  8
QUOTATION
100
AcDbTrace
 10
560.2009993285066
 20
120.1744364883793
 30
0.0
 11
561.4129267334283
 21
119.0303168517252
 31
0.0
 12
557.3746041210052
 22
115.9665944552871
 32
0.0
 13
557.3746041210052
 23
115.9665944552871
 33
0.0
  0
MTEXT
  5
1285
330
A98
100
AcDbEntity
  8
QUOTATION
 62
     2
100
AcDbMText
 10
588.257720317211
 20
135.9067154421004
 30
0.0
 40
7.0
 41
0.0
 71
     5
 72
     1
  1
4x \U+22054.5
 73
     1
 44
1.0
1001
ACAD
1000
MTEXTBEGIN
1070
    73
1070
     1
1070
    44
1040
1.0
1070
    74
1070
     0
1000
MTEXTEND
  0
POINT
  5
1286
330
A98
100
AcDbEntity
  8
Defpoints
 62
     0
100
AcDbPoint
 10
557.3746041210052
 20
115.9665944552871
 30
0.0
  0
POINT
  5
1287
330
A98
100
AcDbEntity
  8
Defpoints
 62
     0
100
AcDbPoint
 10
554.2854811020388
 20
112.6943904619984
 30
0.0
  0
ENDBLK
  5
AA0
330
A98
100
AcDbEntity
  8
0
100
AcDbBlockEnd
  0
BLOCK
  5
AA8
330
AA1
100
AcDbEntity
  8
0
100
AcDbBlockBegin
  2
*D15
 70
     1
 10
0.0
 20
0.0
 30
0.0
  3
*D15
  1

  0
LINE
  5
127C
330
AA1
100
AcDbEntity
  8
QUOTATION
100
AcDbLine
 10
570.7216532085506
 20
103.4191380225873
 30
0.0
 11
577.6906041653189
 21
110.0123187495944
 31
0.0
  0
LINE
  5
127D
330
AA1
100
AcDbEntity
  8
QUOTATION
100
AcDbLine
 10
577.6906041653189
 20
110.0123187495944
 30
0.0
 11
593.2906041653189
 21
110.0123187495944
 31
0.0
  0
SOLID
  5
127E
330
AA1
100
AcDbEntity
  8
QUOTATION
100
AcDbTrace
 10
570.1489440392845
 20
104.0244880468568
 30
0.0
 11
571.2943623778167
 21
102.8137879983179
 31
0.0
 12
567.0895530629338
 22
99.9828830069911
 32
0.0
 13
567.0895530629338
 23
99.9828830069911
 33
0.0
  0
MTEXT
  5
127F
330
AA1
100
AcDbEntity
  8
QUOTATION
 62
     2
100
AcDbMText
 10
586.9906041653189
 20
116.5123187495944
 30
0.0
 40
7.0
 41
0.0
 71
     5
 72
     1
  1
\U+220531
 73
     1
 44
1.0
1001
ACAD
1000
MTEXTBEGIN
1070
    73
1070
     1
1070
    44
1040
1.0
1070
    74
1070
     0
1000
MTEXTEND
  0
POINT
  5
1280
330
AA1
100
AcDbEntity
  8
Defpoints
 62
     0
100
AcDbPoint
 10
567.0895530629338
 20
99.9828830069911
 30
0.0
  0
POINT
  5
1281
330
AA1
100
AcDbEntity
  8
Defpoints
 62
     0
100
AcDbPoint
 10
544.5705321601101
 20
78.6781019102942
 30
0.0
  0
ENDBLK
  5
AA9
330
AA1
100
AcDbEntity
  8
0
100
AcDbBlockEnd
  0
BLOCK
  5
AB4
330
AAA
100
AcDbEntity
  8
0
100
AcDbBlockBegin
  2
*D16
 70
     1
 10
0.0
 20
0.0
 30
0.0
  3
*D16
  1

  0
LINE
  5
1288
330
AAA
100
AcDbEntity
  8
QUOTATION
100
AcDbLine
 10
530.830042611522
 20
87.3304924586427
 30
0.0
 11
530.830042611522
 21
43.25297488840589
 31
0.0
  0
LINE
  5
1289
330
AAA
100
AcDbEntity
  8
QUOTATION
100
AcDbLine
 10
580.830042611522
 20
87.3304924586427
 30
0.0
 11
580.830042611522
 21
43.25297488840589
 31
0.0
  0
LINE
  5
128A
330
AAA
100
AcDbEntity
  8
QUOTATION
100
AcDbLine
 10
535.830042611522
 20
45.25297488840588
 30
0.0
 11
575.8300426115219
 21
45.25297488840588
 31
0.0
  0
SOLID
  5
128B
330
AAA
100
AcDbEntity
  8
QUOTATION
100
AcDbTrace
 10
535.830042611522
 20
46.08630822173922
 30
0.0
 11
535.830042611522
 21
44.41964155507255
 31
0.0
 12
530.830042611522
 22
45.25297488840588
 32
0.0
 13
530.830042611522
 23
45.25297488840588
 33
0.0
  0
SOLID
  5
128C
330
AAA
100
AcDbEntity
  8
QUOTATION
100
AcDbTrace
 10
575.8300426115219
 20
46.08630822173922
 30
0.0
 11
575.8300426115219
 21
44.41964155507255
 31
0.0
 12
580.830042611522
 22
45.25297488840588
 32
0.0
 13
580.830042611522
 23
45.25297488840588
 33
0.0
  0
MTEXT
  5
128D
330
AAA
100
AcDbEntity
  8
QUOTATION
 62
     2
100
AcDbMText
 10
555.830042611522
 20
51.75297488840588
 30
0.0
 40
7.0
 41
0.0
 71
     5
 72
     1
  1
50
 73
     1
 44
1.0
1001
ACAD
1000
MTEXTBEGIN
1070
    73
1070
     1
1070
    44
1040
1.0
1070
    74
1070
     0
1000
MTEXTEND
  0
POINT
  5
128E
330
AAA
100
AcDbEntity
  8
Defpoints
 62
     0
100
AcDbPoint
 10
530.830042611522
 20
89.33049245864269
 30
0.0
  0
POINT
  5
128F
330
AAA
100
AcDbEntity
  8
Defpoints
 62
     0
100
AcDbPoint
 10
580.830042611522
 20
89.33049245864269
 30
0.0
  0
POINT
  5
1290
330
AAA
100
AcDbEntity
  8
Defpoints
 62
     0
100
AcDbPoint
 10
580.830042611522
 20
45.25297488840588
 30
0.0
  0
ENDBLK
  5
AB5
330
AAA
100
AcDbEntity
  8
0
100
AcDbBlockEnd
  0
BLOCK
  5
AC0
330
AB6
100
AcDbEntity
  8
0
100
AcDbBlockBegin
  2
*D17
 70
     1
 10
0.0
 20
0.0
 30
0.0
  3
*D17
  1

  0
LINE
  5
1291
330
AB6
100
AcDbEntity
  8
QUOTATION
100
AcDbLine
 10
553.8300426115219
 20
64.33049245864269
 30
0.0
 11
515.1271956286881
 21
64.33049245864271
 31
0.0
  0
LINE
  5
1292
330
AB6
100
AcDbEntity
  8
QUOTATION
100
AcDbLine
 10
553.8300426115219
 20
114.3304924586427
 30
0.0
 11
515.1271956286881
 21
114.3304924586427
 31
0.0
  0
LINE
  5
1293
330
AB6
100
AcDbEntity
  8
QUOTATION
100
AcDbLine
 10
517.1271956286881
 20
69.33049245864271
 30
0.0
 11
517.1271956286881
 21
109.3304924586427
 31
0.0
  0
SOLID
  5
1294
330
AB6
100
AcDbEntity
  8
QUOTATION
100
AcDbTrace
 10
516.2938622953547
 20
69.33049245864271
 30
0.0
 11
517.9605289620215
 21
69.33049245864271
 31
0.0
 12
517.1271956286881
 22
64.33049245864271
 32
0.0
 13
517.1271956286881
 23
64.33049245864271
 33
0.0
  0
SOLID
  5
1295
330
AB6
100
AcDbEntity
  8
QUOTATION
100
AcDbTrace
 10
516.2938622953547
 20
109.3304924586427
 30
0.0
 11
517.9605289620215
 21
109.3304924586427
 31
0.0
 12
517.1271956286881
 22
114.3304924586427
 32
0.0
 13
517.1271956286881
 23
114.3304924586427
 33
0.0
  0
MTEXT
  5
1296
330
AB6
100
AcDbEntity
  8
QUOTATION
 62
     2
100
AcDbMText
 10
510.6271956286881
 20
89.3304924586428
 30
0.0
 40
7.0
 41
0.0
 71
     5
 72
     1
  1
50
 11
0.0000000000000001
 21
1.0
 31
0.0
 73
     1
 44
1.0
1001
ACAD
1000
MTEXTBEGIN
1070
    73
1070
     1
1070
    44
1040
1.0
1070
    74
1070
     0
1000
MTEXTEND
  0
POINT
  5
1297
330
AB6
100
AcDbEntity
  8
Defpoints
 62
     0
100
AcDbPoint
 10
555.830042611522
 20
64.33049245864269
 30
0.0
  0
POINT
  5
1298
330
AB6
100
AcDbEntity
  8
Defpoints
 62
     0
100
AcDbPoint
 10
555.830042611522
 20
114.3304924586427
 30
0.0
  0
POINT
  5
1299
330
AB6
100
AcDbEntity
  8
Defpoints
 62
     0
100
AcDbPoint
 10
517.1271956286881
 20
114.3304924586427
 30
0.0
  0
ENDBLK
  5
AC1
330
AB6
100
AcDbEntity
  8
0
100
AcDbBlockEnd
  0
BLOCK
  5
ED8
330
ECE
100
AcDbEntity
  8
0
100
AcDbBlockBegin
  2
*D18
 70
     1
 10
0.0
 20
0.0
 30
0.0
  3
*D18
  1

  0
LINE
  5
1321
330
ECE
100
AcDbEntity
  8
QUOTATION
100
AcDbLine
 10
-29.16067448432531
 20
119.8304924586603
 30
0.0
 11
-29.16067448432531
 21
189.9304924586603
 31
0.0
  0
LINE
  5
1322
330
ECE
100
AcDbEntity
  8
QUOTATION
100
AcDbLine
 10
113.8393255156742
 20
165.9304924586604
 30
0.0
 11
113.8393255156742
 21
189.9304924586603
 31
0.0
  0
LINE
  5
1323
330
ECE
100
AcDbEntity
  8
QUOTATION
100
AcDbLine
 10
-24.16067448432531
 20
187.9304924586603
 30
0.0
 11
108.8393255156742
 21
187.9304924586603
 31
0.0
  0
SOLID
  5
1324
330
ECE
100
AcDbEntity
  8
QUOTATION
100
AcDbTrace
 10
-24.16067448432531
 20
188.7638257919937
 30
0.0
 11
-24.16067448432531
 21
187.097159125327
 31
0.0
 12
-29.16067448432531
 22
187.9304924586603
 32
0.0
 13
-29.16067448432531
 23
187.9304924586603
 33
0.0
  0
SOLID
  5
1325
330
ECE
100
AcDbEntity
  8
QUOTATION
100
AcDbTrace
 10
108.8393255156742
 20
188.7638257919937
 30
0.0
 11
108.8393255156742
 21
187.097159125327
 31
0.0
 12
113.8393255156742
 22
187.9304924586603
 32
0.0
 13
113.8393255156742
 23
187.9304924586603
 33
0.0
  0
MTEXT
  5
1326
330
ECE
100
AcDbEntity
  8
QUOTATION
 62
     2
100
AcDbMText
 10
42.33932551567447
 20
194.4304924586603
 30
0.0
 40
7.0
 41
0.0
 71
     5
 72
     1
  1
143
 73
     1
 44
1.0
1001
ACAD
1000
MTEXTBEGIN
1070
    73
1070
     1
1070
    44
1040
1.0
1070
    74
1070
     0
1000
MTEXTEND
  0
POINT
  5
1327
330
ECE
100
AcDbEntity
  8
Defpoints
 62
     0
100
AcDbPoint
 10
-29.16067448432531
 20
117.8304924586603
 30
0.0
  0
POINT
  5
1328
330
ECE
100
AcDbEntity
  8
Defpoints
 62
     0
100
AcDbPoint
 10
113.8393255156742
 20
163.9304924586603
 30
0.0
  0
POINT
  5
1329
330
ECE
100
AcDbEntity
  8
Defpoints
 62
     0
100
AcDbPoint
 10
113.8393255156742
 20
187.9304924586603
 30
0.0
  0
ENDBLK
  5
ED9
330
ECE
100
AcDbEntity
  8
0
100
AcDbBlockEnd
  0
BLOCK
  5
F19
330
F0F
100
AcDbEntity
  8
0
100
AcDbBlockBegin
  2
*D19
 70
     1
 10
0.0
 20
0.0
 30
0.0
  3
*D19
  1

  0
LINE
  5
132A
330
F0F
100
AcDbEntity
  8
QUOTATION
100
AcDbLine
 10
-60.29817379754172
 20
127.8304924586604
 30
0.0
 11
-60.29817379754171
 21
188.5336188377205
 31
0.0
  0
LINE
  5
132B
330
F0F
100
AcDbEntity
  8
QUOTATION
100
AcDbLine
 10
-129.2981737975444
 20
91.33049245866038
 30
0.0
 11
-129.2981737975444
 21
188.5336188377205
 31
0.0
  0
LINE
  5
132C
330
F0F
100
AcDbEntity
  8
QUOTATION
100
AcDbLine
 10
-65.29817379754172
 20
186.5336188377205
 30
0.0
 11
-124.2981737975444
 21
186.5336188377205
 31
0.0
  0
SOLID
  5
132D
330
F0F
100
AcDbEntity
  8
QUOTATION
100
AcDbTrace
 10
-65.29817379754172
 20
187.3669521710538
 30
0.0
 11
-65.29817379754172
 21
185.7002855043871
 31
0.0
 12
-60.29817379754171
 22
186.5336188377205
 32
0.0
 13
-60.29817379754171
 23
186.5336188377205
 33
0.0
  0
SOLID
  5
132E
330
F0F
100
AcDbEntity
  8
QUOTATION
100
AcDbTrace
 10
-124.2981737975444
 20
187.3669521710538
 30
0.0
 11
-124.2981737975444
 21
185.7002855043871
 31
0.0
 12
-129.2981737975444
 22
186.5336188377205
 32
0.0
 13
-129.2981737975444
 23
186.5336188377205
 33
0.0
  0
MTEXT
  5
132F
330
F0F
100
AcDbEntity
  8
QUOTATION
 62
     2
100
AcDbMText
 10
-94.79817379754308
 20
193.0336188377205
 30
0.0
 40
7.0
 41
0.0
 71
     5
 72
     1
  1
69
 73
     1
 44
1.0
1001
ACAD
1000
MTEXTBEGIN
1070
    73
1070
     1
1070
    44
1040
1.0
1070
    74
1070
     0
1000
MTEXTEND
  0
POINT
  5
1330
330
F0F
100
AcDbEntity
  8
Defpoints
 62
     0
100
AcDbPoint
 10
-60.29817379754172
 20
125.8304924586604
 30
0.0
  0
POINT
  5
1331
330
F0F
100
AcDbEntity
  8
Defpoints
 62
     0
100
AcDbPoint
 10
-129.2981737975444
 20
89.33049245866037
 30
0.0
  0
POINT
  5
1332
330
F0F
100
AcDbEntity
  8
Defpoints
 62
     0
100
AcDbPoint
 10
-129.2981737975444
 20
186.5336188377205
 30
0.0
  0
ENDBLK
  5
F1A
330
F0F
100
AcDbEntity
  8
0
100
AcDbBlockEnd
  0
BLOCK
  5
F5A
330
F50
100
AcDbEntity
  8
0
100
AcDbBlockBegin
  2
*D20
 70
     1
 10
0.0
 20
0.0
 30
0.0
  3
*D20
  1

  0
LINE
  5
12D3
330
F50
100
AcDbEntity
  8
QUOTATION
100
AcDbLine
 10
198.6983805507214
 20
27.65525503875756
 30
0.0
 11
184.5549229253747
 21
27.65525503875756
 31
0.0
  0
LINE
  5
12D4
330
F50
100
AcDbEntity
  8
QUOTATION
100
AcDbLine
 10
198.6983805507214
 20
151.0057298785632
 30
0.0
 11
184.5549229253747
 21
151.0057298785632
 31
0.0
  0
LINE
  5
12D5
330
F50
100
AcDbEntity
  8
QUOTATION
100
AcDbLine
 10
186.5549229253747
 20
32.65525503875756
 30
0.0
 11
186.5549229253747
 21
146.0057298785632
 31
0.0
  0
SOLID
  5
12D6
330
F50
100
AcDbEntity
  8
QUOTATION
100
AcDbTrace
 10
185.7215895920413
 20
32.65525503875756
 30
0.0
 11
187.388256258708
 21
32.65525503875756
 31
0.0
 12
186.5549229253747
 22
27.65525503875756
 32
0.0
 13
186.5549229253747
 23
27.65525503875756
 33
0.0
  0
SOLID
  5
12D7
330
F50
100
AcDbEntity
  8
QUOTATION
100
AcDbTrace
 10
185.7215895920414
 20
146.0057298785632
 30
0.0
 11
187.3882562587081
 21
146.0057298785632
 31
0.0
 12
186.5549229253747
 22
151.0057298785632
 32
0.0
 13
186.5549229253747
 23
151.0057298785632
 33
0.0
  0
MTEXT
  5
12D8
330
F50
100
AcDbEntity
  8
QUOTATION
 62
     2
100
AcDbMText
 10
180.0542339489967
 20
89.3304924586604
 30
0.0
 40
7.0
 41
0.0
 71
     5
 72
     1
  1
123.4
 11
0.0000000000000001
 21
1.0
 31
0.0
 73
     1
 44
1.0
1001
ACAD
1000
MTEXTBEGIN
1070
    73
1070
     1
1070
    44
1040
1.0
1070
    74
1070
     0
1000
MTEXTEND
  0
POINT
  5
12D9
330
F50
100
AcDbEntity
  8
Defpoints
 62
     0
100
AcDbPoint
 10
200.6983805507214
 20
27.65525503875756
 30
0.0
  0
POINT
  5
12DA
330
F50
100
AcDbEntity
  8
Defpoints
 62
     0
100
AcDbPoint
 10
200.6983805507214
 20
151.0057298785632
 30
0.0
  0
POINT
  5
12DB
330
F50
100
AcDbEntity
  8
Defpoints
 62
     0
100
AcDbPoint
 10
186.5549229253747
 20
151.0057298785632
 30
0.0
  0
ENDBLK
  5
F5B
330
F50
100
AcDbEntity
  8
0
100
AcDbBlockEnd
  0
BLOCK
  5
F9B
330
F91
100
AcDbEntity
  8
0
100
AcDbBlockBegin
  2
*D21
 70
     1
 10
0.0
 20
0.0
 30
0.0
  3
*D21
  1

  0
LINE
  5
130F
330
F91
100
AcDbEntity
  8
QUOTATION
100
AcDbLine
 10
230.7983805507278
 20
156.7804924586603
 30
0.0
 11
164.5549229253748
 21
156.7804924586604
 31
0.0
  0
LINE
  5
1310
330
F91
100
AcDbEntity
  8
QUOTATION
100
AcDbLine
 10
230.7983805507278
 20
21.8804924586604
 30
0.0
 11
164.5549229253748
 21
21.88049245866042
 31
0.0
  0
LINE
  5
1311
330
F91
100
AcDbEntity
  8
QUOTATION
100
AcDbLine
 10
166.5549229253748
 20
151.7804924586604
 30
0.0
 11
166.5549229253748
 21
26.88049245866042
 31
0.0
  0
SOLID
  5
1312
330
F91
100
AcDbEntity
  8
QUOTATION
100
AcDbTrace
 10
165.7215895920415
 20
151.7804924586604
 30
0.0
 11
167.3882562587081
 21
151.7804924586604
 31
0.0
 12
166.5549229253748
 22
156.7804924586604
 32
0.0
 13
166.5549229253748
 23
156.7804924586604
 33
0.0
  0
SOLID
  5
1313
330
F91
100
AcDbEntity
  8
QUOTATION
100
AcDbTrace
 10
165.7215895920414
 20
26.88049245866042
 30
0.0
 11
167.3882562587081
 21
26.88049245866042
 31
0.0
 12
166.5549229253748
 22
21.88049245866042
 32
0.0
 13
166.5549229253748
 23
21.88049245866042
 33
0.0
  0
MTEXT
  5
1314
330
F91
100
AcDbEntity
  8
QUOTATION
 62
     2
100
AcDbMText
 10
160.0549229253748
 20
89.33049245866042
 30
0.0
 40
7.0
 41
0.0
 71
     5
 72
     1
  1
134.9
 11
0.0000000000000001
 21
1.0
 31
0.0
 73
     1
 44
1.0
1001
ACAD
1000
MTEXTBEGIN
1070
    73
1070
     1
1070
    44
1040
1.0
1070
    74
1070
     0
1000
MTEXTEND
  0
POINT
  5
1315
330
F91
100
AcDbEntity
  8
Defpoints
 62
     0
100
AcDbPoint
 10
232.7983805507278
 20
156.7804924586603
 30
0.0
  0
POINT
  5
1316
330
F91
100
AcDbEntity
  8
Defpoints
 62
     0
100
AcDbPoint
 10
232.7983805507278
 20
21.8804924586604
 30
0.0
  0
POINT
  5
1317
330
F91
100
AcDbEntity
  8
Defpoints
 62
     0
100
AcDbPoint
 10
166.5549229253748
 20
21.88049245866042
 30
0.0
  0
ENDBLK
  5
F9C
330
F91
100
AcDbEntity
  8
0
100
AcDbBlockEnd
  0
BLOCK
  5
FDC
330
FD2
100
AcDbEntity
  8
0
100
AcDbBlockBegin
  2
*D22
 70
     1
 10
0.0
 20
0.0
 30
0.0
  3
*D22
  1

  0
LINE
  5
FDE
330
FD2
100
AcDbEntity
  8
QUOTATION
100
AcDbLine
 10
230.7983805507278
 20
163.9304924586604
 30
0.0
 11
144.5549229253748
 21
163.9304924586604
 31
0.0
  0
LINE
  5
FDF
330
FD2
100
AcDbEntity
  8
QUOTATION
100
AcDbLine
 10
230.7983805507278
 20
14.73049245866038
 30
0.0
 11
144.5549229253747
 21
14.7304924586604
 31
0.0
  0
LINE
  5
FE0
330
FD2
100
AcDbEntity
  8
QUOTATION
100
AcDbLine
 10
146.5549229253747
 20
158.9304924586604
 30
0.0
 11
146.5549229253747
 21
19.7304924586604
 31
0.0
  0
SOLID
  5
FE1
330
FD2
100
AcDbEntity
  8
QUOTATION
100
AcDbTrace
 10
145.7215895920414
 20
158.9304924586604
 30
0.0
 11
147.3882562587081
 21
158.9304924586604
 31
0.0
 12
146.5549229253747
 22
163.9304924586604
 32
0.0
 13
146.5549229253747
 23
163.9304924586604
 33
0.0
  0
SOLID
  5
FE2
330
FD2
100
AcDbEntity
  8
QUOTATION
100
AcDbTrace
 10
145.7215895920414
 20
19.7304924586604
 30
0.0
 11
147.3882562587081
 21
19.7304924586604
 31
0.0
 12
146.5549229253747
 22
14.7304924586604
 32
0.0
 13
146.5549229253747
 23
14.7304924586604
 33
0.0
  0
MTEXT
  5
FE3
330
FD2
100
AcDbEntity
  8
QUOTATION
 62
     2
100
AcDbMText
 10
140.0525421924278
 20
89.33049245866042
 30
0.0
 40
7.0
 41
0.0
 71
     5
 72
     1
  1
149.2
 11
0.0000000000000001
 21
1.0
 31
0.0
 73
     1
 44
1.0
1001
ACAD
1000
MTEXTBEGIN
1070
    73
1070
     1
1070
    44
1040
1.0
1070
    74
1070
     0
1000
MTEXTEND
  0
POINT
  5
FE4
330
FD2
100
AcDbEntity
  8
Defpoints
 62
     0
100
AcDbPoint
 10
232.7983805507278
 20
163.9304924586604
 30
0.0
  0
POINT
  5
FE5
330
FD2
100
AcDbEntity
  8
Defpoints
 62
     0
100
AcDbPoint
 10
232.7983805507278
 20
14.73049245866038
 30
0.0
  0
POINT
  5
FE6
330
FD2
100
AcDbEntity
  8
Defpoints
 62
     0
100
AcDbPoint
 10
146.5549229253747
 20
14.7304924586604
 30
0.0
  0
ENDBLK
  5
FDD
330
FD2
100
AcDbEntity
  8
0
100
AcDbBlockEnd
  0
BLOCK
  5
101F
330
1015
100
AcDbEntity
  8
0
100
AcDbBlockBegin
  2
*D23
 70
     1
 10
0.0
 20
0.0
 30
0.0
  3
*D23
  1

  0
LINE
  5
1306
330
1015
100
AcDbEntity
  8
QUOTATION
100
AcDbLine
 10
195.6983805507149
 20
27.53049245866036
 30
0.0
 11
195.6983805507149
 21
-4.119507541339629
 31
0.0
  0
LINE
  5
1307
330
1015
100
AcDbEntity
  8
QUOTATION
100
AcDbLine
 10
232.7983805507278
 20
19.8804924586604
 30
0.0
 11
232.7983805507278
 21
-4.119507541339633
 31
0.0
  0
LINE
  5
1308
330
1015
100
AcDbEntity
  8
QUOTATION
100
AcDbLine
 10
200.6983805507149
 20
-2.119507541339632
 30
0.0
 11
227.7983805507278
 21
-2.119507541339632
 31
0.0
  0
SOLID
  5
1309
330
1015
100
AcDbEntity
  8
QUOTATION
100
AcDbTrace
 10
200.6983805507149
 20
-1.286174208006299
 30
0.0
 11
200.6983805507149
 21
-2.952840874672966
 31
0.0
 12
195.6983805507149
 22
-2.119507541339632
 32
0.0
 13
195.6983805507149
 23
-2.119507541339632
 33
0.0
  0
SOLID
  5
130A
330
1015
100
AcDbEntity
  8
QUOTATION
100
AcDbTrace
 10
227.7983805507278
 20
-1.286174208006299
 30
0.0
 11
227.7983805507278
 21
-2.952840874672966
 31
0.0
 12
232.7983805507278
 22
-2.119507541339632
 32
0.0
 13
232.7983805507278
 23
-2.119507541339632
 33
0.0
  0
MTEXT
  5
130B
330
1015
100
AcDbEntity
  8
QUOTATION
 62
     2
100
AcDbMText
 10
214.2483805507214
 20
4.380492458660366
 30
0.0
 40
7.0
 41
0.0
 71
     5
 72
     1
  1
37.1
 73
     1
 44
1.0
1001
ACAD
1000
MTEXTBEGIN
1070
    73
1070
     1
1070
    44
1040
1.0
1070
    74
1070
     0
1000
MTEXTEND
  0
POINT
  5
130C
330
1015
100
AcDbEntity
  8
Defpoints
 62
     0
100
AcDbPoint
 10
195.6983805507149
 20
29.53049245866036
 30
0.0
  0
POINT
  5
130D
330
1015
100
AcDbEntity
  8
Defpoints
 62
     0
100
AcDbPoint
 10
232.7983805507278
 20
21.8804924586604
 30
0.0
  0
POINT
  5
130E
330
1015
100
AcDbEntity
  8
Defpoints
 62
     0
100
AcDbPoint
 10
232.7983805507278
 20
-2.119507541339632
 30
0.0
  0
ENDBLK
  5
1020
330
1015
100
AcDbEntity
  8
0
100
AcDbBlockEnd
  0
BLOCK
  5
1060
330
1056
100
AcDbEntity
  8
0
100
AcDbBlockBegin
  2
*D24
 70
     1
 10
0.0
 20
0.0
 30
0.0
  3
*D24
  1

  0
LINE
  5
12EE
330
1056
100
AcDbEntity
  8
QUOTATION
100
AcDbLine
 10
232.7983805507278
 20
19.8804924586604
 30
0.0
 11
232.7983805507278
 21
-4.119507541339626
 31
0.0
  0
LINE
  5
12EF
330
1056
100
AcDbEntity
  8
QUOTATION
100
AcDbLine
 10
270.9983805507278
 20
19.8804924586604
 30
0.0
 11
270.9983805507278
 21
-4.119507541339626
 31
0.0
  0
LINE
  5
12F0
330
1056
100
AcDbEntity
  8
QUOTATION
100
AcDbLine
 10
237.7983805507279
 20
-2.119507541339626
 30
0.0
 11
265.9983805507279
 21
-2.119507541339626
 31
0.0
  0
SOLID
  5
12F1
330
1056
100
AcDbEntity
  8
QUOTATION
100
AcDbTrace
 10
237.7983805507279
 20
-1.286174208006292
 30
0.0
 11
237.7983805507279
 21
-2.952840874672959
 31
0.0
 12
232.7983805507278
 22
-2.119507541339626
 32
0.0
 13
232.7983805507278
 23
-2.119507541339626
 33
0.0
  0
SOLID
  5
12F2
330
1056
100
AcDbEntity
  8
QUOTATION
100
AcDbTrace
 10
265.9983805507279
 20
-1.286174208006292
 30
0.0
 11
265.9983805507279
 21
-2.952840874672959
 31
0.0
 12
270.9983805507278
 22
-2.119507541339626
 32
0.0
 13
270.9983805507278
 23
-2.119507541339626
 33
0.0
  0
MTEXT
  5
12F3
330
1056
100
AcDbEntity
  8
QUOTATION
 62
     2
100
AcDbMText
 10
251.8983805507279
 20
4.381181435038326
 30
0.0
 40
7.0
 41
0.0
 71
     5
 72
     1
  1
38.2
 73
     1
 44
1.0
1001
ACAD
1000
MTEXTBEGIN
1070
    73
1070
     1
1070
    44
1040
1.0
1070
    74
1070
     0
1000
MTEXTEND
  0
POINT
  5
12F4
330
1056
100
AcDbEntity
  8
Defpoints
 62
     0
100
AcDbPoint
 10
232.7983805507278
 20
21.8804924586604
 30
0.0
  0
POINT
  5
12F5
330
1056
100
AcDbEntity
  8
Defpoints
 62
     0
100
AcDbPoint
 10
270.9983805507278
 20
21.8804924586604
 30
0.0
  0
POINT
  5
12F6
330
1056
100
AcDbEntity
  8
Defpoints
 62
     0
100
AcDbPoint
 10
270.9983805507278
 20
-2.119507541339626
 30
0.0
  0
ENDBLK
  5
1061
330
1056
100
AcDbEntity
  8
0
100
AcDbBlockEnd
  0
BLOCK
  5
10AB
330
10A1
100
AcDbEntity
  8
0
100
AcDbBlockBegin
  2
*D25
 70
     1
 10
0.0
 20
0.0
 30
0.0
  3
*D25
  1

  0
LINE
  5
1739
330
10A1
100
AcDbEntity
  8
QUOTATION
100
AcDbLine
 10
270.9983805507278
 20
19.8804924586604
 30
0.0
 11
270.9983805507278
 21
-4.11950754133954
 31
0.0
  0
LINE
  5
173A
330
10A1
100
AcDbEntity
  8
QUOTATION
100
AcDbLine
 10
326.1983805507185
 20
87.33049245862503
 30
0.0
 11
326.1983805507185
 21
-4.119507541339544
 31
0.0
  0
LINE
  5
173B
330
10A1
100
AcDbEntity
  8
QUOTATION
100
AcDbLine
 10
275.9983805507279
 20
-2.119507541339542
 30
0.0
 11
321.1983805507184
 21
-2.119507541339542
 31
0.0
  0
SOLID
  5
173C
330
10A1
100
AcDbEntity
  8
QUOTATION
100
AcDbTrace
 10
275.9983805507279
 20
-1.286174208006208
 30
0.0
 11
275.9983805507279
 21
-2.952840874672875
 31
0.0
 12
270.9983805507278
 22
-2.119507541339542
 32
0.0
 13
270.9983805507278
 23
-2.119507541339542
 33
0.0
  0
SOLID
  5
173D
330
10A1
100
AcDbEntity
  8
QUOTATION
100
AcDbTrace
 10
321.1983805507184
 20
-1.286174208006208
 30
0.0
 11
321.1983805507184
 21
-2.952840874672875
 31
0.0
 12
326.1983805507185
 22
-2.119507541339542
 32
0.0
 13
326.1983805507185
 23
-2.119507541339542
 33
0.0
  0
MTEXT
  5
173E
330
10A1
100
AcDbEntity
  8
QUOTATION
 62
     2
100
AcDbMText
 10
298.5983805507231
 20
4.38118143503841
 30
0.0
 40
7.0
 41
0.0
 71
     5
 72
     1
  1
55.2
 73
     1
 44
1.0
1001
ACAD
1000
MTEXTBEGIN
1070
    73
1070
     1
1070
    44
1040
1.0
1070
    74
1070
     0
1000
MTEXTEND
  0
POINT
  5
173F
330
10A1
100
AcDbEntity
  8
Defpoints
 62
     0
100
AcDbPoint
 10
270.9983805507278
 20
21.8804924586604
 30
0.0
  0
POINT
  5
1740
330
10A1
100
AcDbEntity
  8
Defpoints
 62
     0
100
AcDbPoint
 10
326.1983805507185
 20
89.33049245862504
 30
0.0
  0
POINT
  5
1741
330
10A1
100
AcDbEntity
  8
Defpoints
 62
     0
100
AcDbPoint
 10
326.1983805507185
 20
-2.119507541339542
 30
0.0
  0
ENDBLK
  5
10AC
330
10A1
100
AcDbEntity
  8
0
100
AcDbBlockEnd
  0
BLOCK
  5
10F6
330
10EB
100
AcDbEntity
  8
0
100
AcDbBlockBegin
  2
*D26
 70
     1
 10
0.0
 20
0.0
 30
0.0
  3
*D26
  1

  0
LINE
  5
1767
330
10EB
100
AcDbEntity
  8
QUOTATION
100
AcDbLine
 10
326.1983805507185
 20
87.33049245862503
 30
0.0
 11
326.1983805507185
 21
-4.119507541339501
 31
0.0
  0
LINE
  5
1768
330
10EB
100
AcDbEntity
  8
QUOTATION
100
AcDbLine
 10
344.2983805507184
 20
28.33049245864277
 30
0.0
 11
344.2983805507184
 21
-4.119507541339508
 31
0.0
  0
LINE
  5
1769
330
10EB
100
AcDbEntity
  8
QUOTATION
100
AcDbLine
 10
331.1983805507185
 20
-2.119507541339507
 30
0.0
 11
339.2983805507185
 21
-2.119507541339507
 31
0.0
  0
SOLID
  5
176A
330
10EB
100
AcDbEntity
  8
QUOTATION
100
AcDbTrace
 10
331.1983805507185
 20
-1.286174208006173
 30
0.0
 11
331.1983805507185
 21
-2.95284087467284
 31
0.0
 12
326.1983805507185
 22
-2.119507541339507
 32
0.0
 13
326.1983805507185
 23
-2.119507541339507
 33
0.0
  0
SOLID
  5
176B
330
10EB
100
AcDbEntity
  8
QUOTATION
100
AcDbTrace
 10
339.2983805507185
 20
-1.286174208006173
 30
0.0
 11
339.2983805507185
 21
-2.95284087467284
 31
0.0
 12
344.2983805507184
 22
-2.119507541339507
 32
0.0
 13
344.2983805507184
 23
-2.119507541339507
 33
0.0
  0
MTEXT
  5
176C
330
10EB
100
AcDbEntity
  8
QUOTATION
 62
     2
100
AcDbMText
 10
335.2483805507185
 20
4.380492458660492
 30
0.0
 40
7.0
 41
0.0
 71
     5
 72
     1
  1
18.1
 73
     1
 44
1.0
1001
ACAD
1000
MTEXTBEGIN
1070
    73
1070
     1
1070
    44
1040
1.0
1070
    74
1070
     0
1000
MTEXTEND
  0
POINT
  5
176D
330
10EB
100
AcDbEntity
  8
Defpoints
 62
     0
100
AcDbPoint
 10
326.1983805507185
 20
89.33049245862504
 30
0.0
  0
POINT
  5
176E
330
10EB
100
AcDbEntity
  8
Defpoints
 62
     0
100
AcDbPoint
 10
344.2983805507184
 20
30.33049245864277
 30
0.0
  0
POINT
  5
176F
330
10EB
100
AcDbEntity
  8
Defpoints
 62
     0
100
AcDbPoint
 10
344.2983805507184
 20
-2.119507541339507
 30
0.0
  0
ENDBLK
  5
10F7
330
10EB
100
AcDbEntity
  8
0
100
AcDbBlockEnd
  0
BLOCK
  5
113E
330
1134
100
AcDbEntity
  8
0
100
AcDbBlockBegin
  2
*D27
 70
     1
 10
0.0
 20
0.0
 30
0.0
  3
*D27
  1

  0
LINE
  5
1754
330
1134
100
AcDbEntity
  8
QUOTATION
100
AcDbLine
 10
195.6983805507149
 20
149.7304924586603
 30
0.0
 11
195.6983805507149
 21
186.8230407323017
 31
0.0
  0
LINE
  5
1755
330
1134
100
AcDbEntity
  8
QUOTATION
100
AcDbLine
 10
344.2983805507185
 20
150.3304924586426
 30
0.0
 11
344.2983805507185
 21
186.8230407323017
 31
0.0
  0
LINE
  5
1756
330
1134
100
AcDbEntity
  8
QUOTATION
100
AcDbLine
 10
200.6983805507149
 20
184.8230407323017
 30
0.0
 11
339.2983805507185
 21
184.8230407323017
 31
0.0
  0
SOLID
  5
1757
330
1134
100
AcDbEntity
  8
QUOTATION
100
AcDbTrace
 10
200.6983805507149
 20
185.656374065635
 30
0.0
 11
200.6983805507149
 21
183.9897073989683
 31
0.0
 12
195.6983805507149
 22
184.8230407323017
 32
0.0
 13
195.6983805507149
 23
184.8230407323017
 33
0.0
  0
SOLID
  5
1758
330
1134
100
AcDbEntity
  8
QUOTATION
100
AcDbTrace
 10
339.2983805507185
 20
185.656374065635
 30
0.0
 11
339.2983805507185
 21
183.9897073989683
 31
0.0
 12
344.2983805507185
 22
184.8230407323017
 32
0.0
 13
344.2983805507185
 23
184.8230407323017
 33
0.0
  0
MTEXT
  5
1759
330
1134
100
AcDbEntity
  8
QUOTATION
 62
     2
100
AcDbMText
 10
278.8749050411079
 20
191.3230407323017
 30
0.0
 40
7.0
 41
0.0
 71
     5
 72
     1
  1
148.6
 73
     1
 44
1.0
1001
ACAD
1000
MTEXTBEGIN
1070
    73
1070
     1
1070
    44
1040
1.0
1070
    74
1070
     0
1000
MTEXTEND
  0
POINT
  5
175A
330
1134
100
AcDbEntity
  8
Defpoints
 62
     0
100
AcDbPoint
 10
195.6983805507149
 20
147.7304924586603
 30
0.0
  0
POINT
  5
175B
330
1134
100
AcDbEntity
  8
Defpoints
 62
     0
100
AcDbPoint
 10
344.2983805507185
 20
148.3304924586426
 30
0.0
  0
POINT
  5
175C
330
1134
100
AcDbEntity
  8
Defpoints
 62
     0
100
AcDbPoint
 10
344.2983805507185
 20
184.8230407323017
 30
0.0
  0
ENDBLK
  5
113F
330
1134
100
AcDbEntity
  8
0
100
AcDbBlockEnd
  0
BLOCK
  5
117F
330
1175
100
AcDbEntity
  8
0
100
AcDbBlockBegin
  2
*D28
 70
     1
 10
0.0
 20
0.0
 30
0.0
  3
*D28
  1

  0
LINE
  5
1719
330
1175
100
AcDbEntity
  8
QUOTATION
100
AcDbLine
 10
326.1983805507185
 20
87.3304924586427
 30
0.0
 11
326.1983805507185
 21
-23.70313287052744
 31
0.0
  0
LINE
  5
171A
330
1175
100
AcDbEntity
  8
QUOTATION
100
AcDbLine
 10
452.6983805507255
 20
87.33049245862458
 30
0.0
 11
452.6983805507255
 21
-23.70313287052744
 31
0.0
  0
LINE
  5
171B
330
1175
100
AcDbEntity
  8
QUOTATION
100
AcDbLine
 10
331.1983805507185
 20
-21.70313287052744
 30
0.0
 11
447.6983805507256
 21
-21.70313287052744
 31
0.0
  0
SOLID
  5
171C
330
1175
100
AcDbEntity
  8
QUOTATION
100
AcDbTrace
 10
331.1983805507185
 20
-20.86979953719411
 30
0.0
 11
331.1983805507185
 21
-22.53646620386077
 31
0.0
 12
326.1983805507185
 22
-21.70313287052744
 32
0.0
 13
326.1983805507185
 23
-21.70313287052744
 33
0.0
  0
SOLID
  5
171D
330
1175
100
AcDbEntity
  8
QUOTATION
100
AcDbTrace
 10
447.6983805507256
 20
-20.86979953719411
 30
0.0
 11
447.6983805507256
 21
-22.53646620386077
 31
0.0
 12
452.6983805507255
 22
-21.70313287052744
 32
0.0
 13
452.6983805507255
 23
-21.70313287052744
 33
0.0
  0
MTEXT
  5
171E
330
1175
100
AcDbEntity
  8
QUOTATION
 62
     2
100
AcDbMText
 10
389.4483805507221
 20
-15.20244389414949
 30
0.0
 40
7.0
 41
0.0
 71
     5
 72
     1
  1
126.5
 73
     1
 44
1.0
1001
ACAD
1000
MTEXTBEGIN
1070
    73
1070
     1
1070
    44
1040
1.0
1070
    74
1070
     0
1000
MTEXTEND
  0
POINT
  5
171F
330
1175
100
AcDbEntity
  8
Defpoints
 62
     0
100
AcDbPoint
 10
326.1983805507185
 20
89.33049245864269
 30
0.0
  0
POINT
  5
1720
330
1175
100
AcDbEntity
  8
Defpoints
 62
     0
100
AcDbPoint
 10
452.6983805507255
 20
89.33049245862457
 30
0.0
  0
POINT
  5
1721
330
1175
100
AcDbEntity
  8
Defpoints
 62
     0
100
AcDbPoint
 10
452.6983805507255
 20
-21.70313287052744
 30
0.0
  0
ENDBLK
  5
1180
330
1175
100
AcDbEntity
  8
0
100
AcDbBlockEnd
  0
BLOCK
  5
11C0
330
11B6
100
AcDbEntity
  8
0
100
AcDbBlockBegin
  2
*D29
 70
     1
 10
0.0
 20
0.0
 30
0.0
  3
*D29
  1

  0
LINE
  5
167F
330
11B6
100
AcDbEntity
  8
QUOTATION
100
AcDbLine
 10
279.3483805507173
 20
234.0941298937841
 30
0.0
 11
385.3730845367122
 21
234.0941298937841
 31
0.0
  0
LINE
  5
1680
330
11B6
100
AcDbEntity
  8
QUOTATION
100
AcDbLine
 10
336.1983805507184
 20
335.6941298937841
 30
0.0
 11
385.3730845367122
 21
335.6941298937841
 31
0.0
  0
LINE
  5
1681
330
11B6
100
AcDbEntity
  8
QUOTATION
100
AcDbLine
 10
383.3730845367123
 20
239.0941298937841
 30
0.0
 11
383.3730845367123
 21
330.6941298937841
 31
0.0
  0
SOLID
  5
1682
330
11B6
100
AcDbEntity
  8
QUOTATION
100
AcDbTrace
 10
382.539751203379
 20
239.0941298937841
 30
0.0
 11
384.2064178700456
 21
239.0941298937841
 31
0.0
 12
383.3730845367123
 22
234.0941298937841
 32
0.0
 13
383.3730845367123
 23
234.0941298937841
 33
0.0
  0
SOLID
  5
1683
330
11B6
100
AcDbEntity
  8
QUOTATION
100
AcDbTrace
 10
382.539751203379
 20
330.6941298937841
 30
0.0
 11
384.2064178700456
 21
330.6941298937841
 31
0.0
 12
383.3730845367123
 22
335.6941298937841
 32
0.0
 13
383.3730845367123
 23
335.6941298937841
 33
0.0
  0
MTEXT
  5
1684
330
11B6
100
AcDbEntity
  8
QUOTATION
 62
     2
100
AcDbMText
 10
376.8730845367122
 20
278.5832257843676
 30
0.0
 40
7.0
 41
0.0
 71
     5
 72
     1
  1
101.6
 11
0.0000000000000001
 21
1.0
 31
0.0
 73
     1
 44
1.0
1001
ACAD
1000
MTEXTBEGIN
1070
    73
1070
     1
1070
    44
1040
1.0
1070
    74
1070
     0
1000
MTEXTEND
  0
POINT
  5
1685
330
11B6
100
AcDbEntity
  8
Defpoints
 62
     0
100
AcDbPoint
 10
277.3483805507173
 20
234.0941298937841
 30
0.0
  0
POINT
  5
1686
330
11B6
100
AcDbEntity
  8
Defpoints
 62
     0
100
AcDbPoint
 10
334.1983805507183
 20
335.6941298937841
 30
0.0
  0
POINT
  5
1687
330
11B6
100
AcDbEntity
  8
Defpoints
 62
     0
100
AcDbPoint
 10
383.3730845367123
 20
335.6941298937841
 30
0.0
  0
ENDBLK
  5
11C1
330
11B6
100
AcDbEntity
  8
0
100
AcDbBlockEnd
  0
BLOCK
  5
11F6
330
11F0
100
AcDbEntity
  8
0
100
AcDbBlockBegin
  2
*D30
 70
     1
 10
0.0
 20
0.0
 30
0.0
  3
*D30
  1

  0
LINE
  5
1300
330
11F0
100
AcDbEntity
  8
QUOTATION
100
AcDbLine
 10
277.2839573491072
 20
160.8721332434404
 30
0.0
 11
287.5363813917143
 21
167.5460213687762
 31
0.0
  0
LINE
  5
1301
330
11F0
100
AcDbEntity
  8
QUOTATION
100
AcDbLine
 10
287.5363813917143
 20
167.5460213687762
 30
0.0
 11
299.9263308853755
 21
167.5460213687762
 31
0.0
  0
SOLID
  5
1302
330
11F0
100
AcDbEntity
  8
QUOTATION
100
AcDbTrace
 10
276.8293305952428
 20
161.5705306654825
 30
0.0
 11
277.7385841029716
 21
160.1737358213982
 31
0.0
 12
273.0935728168542
 22
158.1443727202537
 32
0.0
 13
273.0935728168542
 23
158.1443727202537
 33
0.0
  0
MTEXT
  5
1303
330
11F0
100
AcDbEntity
  8
QUOTATION
 62
     2
100
AcDbMText
 10
295.231356138545
 20
174.0460213687761
 30
0.0
 40
7.0
 41
0.0
 71
     5
 72
     1
  1
\U+22055
 73
     1
 44
1.0
1001
ACAD
1000
MTEXTBEGIN
1070
    73
1070
     1
1070
    44
1040
1.0
1070
    74
1070
     0
1000
MTEXTEND
  0
POINT
  5
1304
330
11F0
100
AcDbEntity
  8
Defpoints
 62
     0
100
AcDbPoint
 10
273.0935728168542
 20
158.1443727202537
 30
0.0
  0
POINT
  5
1305
330
11F0
100
AcDbEntity
  8
Defpoints
 62
     0
100
AcDbPoint
 10
268.9031882846014
 20
155.4166121970671
 30
0.0
  0
ENDBLK
  5
11F7
330
11F0
100
AcDbEntity
  8
0
100
AcDbBlockEnd
  0
BLOCK
  5
1244
330
1238
100
AcDbEntity
  8
0
100
AcDbBlockBegin
  2
*D31
 70
     1
 10
0.0
 20
0.0
 30
0.0
  3
*D31
  1

  0
LINE
  5
12B1
330
1238
100
AcDbEntity
  8
QUOTATION
100
AcDbLine
 10
224.4483805507172
 20
234.0941298937841
 30
0.0
 11
182.1570061048446
 21
234.0941298937841
 31
0.0
  0
LINE
  5
12B2
330
1238
100
AcDbEntity
  8
QUOTATION
100
AcDbLine
 10
193.6983805507213
 20
238.0941298937828
 30
0.0
 11
182.1570061048446
 21
238.0941298937828
 31
0.0
  0
LINE
  5
12B3
330
1238
100
AcDbEntity
  8
QUOTATION
100
AcDbLine
 10
184.1570061048446
 20
229.0941298937841
 30
0.0
 11
184.1570061048446
 21
224.0941298937841
 31
0.0
  0
LINE
  5
12B4
330
1238
100
AcDbEntity
  8
QUOTATION
100
AcDbLine
 10
184.1570061048446
 20
243.0941298937828
 30
0.0
 11
184.1570061048446
 21
257.5941298937828
 31
0.0
  0
LINE
  5
12B5
330
1238
100
AcDbEntity
  8
QUOTATION
100
AcDbLine
 10
184.1570061048446
 20
234.0941298937841
 30
0.0
 11
184.1570061048446
 21
238.0941298937828
 31
0.0
  0
SOLID
  5
12B6
330
1238
100
AcDbEntity
  8
QUOTATION
100
AcDbTrace
 10
183.3236727715113
 20
229.0941298937841
 30
0.0
 11
184.990339438178
 21
229.0941298937841
 31
0.0
 12
184.1570061048446
 22
234.0941298937841
 32
0.0
 13
184.1570061048446
 23
234.0941298937841
 33
0.0
  0
SOLID
  5
12B7
330
1238
100
AcDbEntity
  8
QUOTATION
100
AcDbTrace
 10
183.3236727715113
 20
243.0941298937828
 30
0.0
 11
184.990339438178
 21
243.0941298937828
 31
0.0
 12
184.1570061048446
 22
238.0941298937828
 32
0.0
 13
184.1570061048446
 23
238.0941298937828
 33
0.0
  0
MTEXT
  5
12B8
330
1238
100
AcDbEntity
  8
QUOTATION
 62
     2
100
AcDbMText
 10
177.6570061048446
 20
252.8441298937829
 30
0.0
 40
7.0
 41
0.0
 71
     5
 72
     1
  1
4
 11
0.0000000000000001
 21
1.0
 31
0.0
 73
     1
 44
1.0
1001
ACAD
1000
MTEXTBEGIN
1070
    73
1070
     1
1070
    44
1040
1.0
1070
    74
1070
     0
1000
MTEXTEND
  0
POINT
  5
12B9
330
1238
100
AcDbEntity
  8
Defpoints
 62
     0
100
AcDbPoint
 10
226.4483805507172
 20
234.0941298937841
 30
0.0
  0
POINT
  5
12BA
330
1238
100
AcDbEntity
  8
Defpoints
 62
     0
100
AcDbPoint
 10
195.6983805507213
 20
238.0941298937828
 30
0.0
  0
POINT
  5
12BB
330
1238
100
AcDbEntity
  8
Defpoints
 62
     0
100
AcDbPoint
 10
184.1570061048446
 20
238.0941298937828
 30
0.0
  0
ENDBLK
  5
1245
330
1238
100
AcDbEntity
  8
0
100
AcDbBlockEnd
  0
BLOCK
  5
129C
330
129B
100
AcDbEntity
  8
0
100
AcDbBlockBegin
  2
38613004 basic device back
 70
     0
 10
0.0
 20
0.0
 30
0.0
  3
38613004 basic device back
  1

  0
INSERT
  5
129F
330
129B
100
AcDbEntity
  8
INTER PHASE SCREEN
100
AcDbBlockReference
  2
HANDLE TYPE G2 BACK UL
 10
130.4999858096062
 20
173.4950093262343
 30
0.0
  0
INSERT
  5
12A0
330
129B
100
AcDbEntity
  8
0
100
AcDbBlockReference
  2
522048 cover fuse back
 10
56.20000000000226
 20
87.00000000000102
 30
0.0
  0
INSERT
  5
12A1
330
129B
100
AcDbEntity
  8
0
100
AcDbBlockReference
  2
522048 cover fuse back
 10
18.00000000000227
 20
87.00000000000102
 30
0.0
  0
INSERT
  5
12A2
330
129B
100
AcDbEntity
  8
0
100
AcDbBlockReference
  2
522048 cover fuse back
 10
94.4000000000023
 20
87.00000000000102
 30
0.0
  0
INSERT
  5
12A3
330
129B
100
AcDbEntity
  8
0
100
AcDbBlockReference
  2
56a463 module 1 pole 30A J back
 10
38.19999999999999
 20
0.0
 30
0.0
  0
INSERT
  5
12A4
330
129B
100
AcDbEntity
  8
0
100
AcDbBlockReference
  2
525766 ecran entre phase back
 10
37.0999999999959
 20
-3.999999999998692
 30
0.0
  0
INSERT
  5
12A5
330
129B
100
AcDbEntity
  8
0
100
AcDbBlockReference
  2
56a463 module 1 pole 30A J back
 10
0.0
 20
0.0
 30
0.0
  0
INSERT
  5
12A6
330
129B
100
AcDbEntity
  8
0
100
AcDbBlockReference
  2
525766 ecran entre phase back
 10
75.29999999999592
 20
-3.999999999998692
 30
0.0
  0
INSERT
  5
12A7
330
129B
100
AcDbEntity
  8
0
100
AcDbBlockReference
  2
56a463 module 1 pole 30A J back
 10
76.40000000000004
 20
0.0
 30
0.0
  0
INSERT
  5
16F8
330
129B
100
AcDbEntity
  8
0
100
AcDbBlockReference
  2
528008+528009 assembly back
 10
112.3999999999971
 20
5.000000000001307
 30
0.0
  0
ENDBLK
  5
129D
330
129B
100
AcDbEntity
  8
0
100
AcDbBlockEnd
  0
BLOCK
  5
12BE
330
12BD
100
AcDbEntity
  8
0
100
AcDbBlockBegin
  2
38613004 basic device front
 70
     0
 10
0.0
 20
0.0
 30
0.0
  3
38613004 basic device front
  1

  0
INSERT
  5
12C0
330
12BD
100
AcDbEntity
  8
INTER PHASE SCREEN
100
AcDbBlockReference
  2
HANDLE TYPE G2 FRONT UL
 10
130.5000000000035
 20
0.6999999999646747
 30
0.0
  0
INSERT
  5
12C2
330
12BD
100
AcDbEntity
  8
0
100
AcDbBlockReference
  2
56a463 module 1 pole 30A J front
 10
56.19999999999913
 20
-78.62476258019261
 30
0.0
  0
INSERT
  5
12C3
330
12BD
100
AcDbEntity
  8
0
100
AcDbBlockReference
  2
522048 cover fuse front
 10
38.19999999999999
 20
-59.1
 30
0.0
  0
INSERT
  5
12C4
330
12BD
100
AcDbEntity
  8
0
100
AcDbBlockReference
  2
525766 ecran entre phase front
 10
36.10000000001284
 20
0.7000000000000313
 30
0.0
  0
INSERT
  5
12C5
330
12BD
100
AcDbEntity
  8
0
100
AcDbBlockReference
  2
522048 cover fuse front
 10
0.0
 20
-59.1
 30
0.0
  0
INSERT
  5
12C6
330
12BD
100
AcDbEntity
  8
0
100
AcDbBlockReference
  2
56a463 module 1 pole 30A J front
 10
17.99999999999915
 20
-78.62476258019261
 30
0.0
  0
INSERT
  5
12C7
330
12BD
100
AcDbEntity
  8
0
100
AcDbBlockReference
  2
56a463 module 1 pole 30A J front
 10
94.39999999999912
 20
-78.62476258019261
 30
0.0
  0
INSERT
  5
12C8
330
12BD
100
AcDbEntity
  8
0
100
AcDbBlockReference
  2
522048 cover fuse front
 10
76.40000000000004
 20
-59.1
 30
0.0
  0
INSERT
  5
12C9
330
12BD
100
AcDbEntity
  8
0
100
AcDbBlockReference
  2
525766 ecran entre phase front
 10
74.30000000001285
 20
0.7000000000000313
 30
0.0
  0
INSERT
  5
1723
330
12BD
100
AcDbEntity
  8
0
100
AcDbBlockReference
  2
528008+528009 assembly front
 10
130.5000000000035
 20
0.699999999982353
 30
0.0
  0
ENDBLK
  5
12BF
330
12BD
100
AcDbEntity
  8
0
100
AcDbBlockEnd
  0
BLOCK
  5
131A
330
1319
100
AcDbEntity
  8
0
100
AcDbBlockBegin
  2
38613004 basic device right
 70
     0
 10
0.0
 20
0.0
 30
0.0
  3
38613004 basic device right
  1

  0
INSERT
  5
131D
330
1319
100
AcDbEntity
  8
0
100
AcDbBlockReference
  2
522048 cover fuse right
 10
-91.00000000000003
 20
-59.79999999999989
 30
0.0
  0
INSERT
  5
131E
330
1319
100
AcDbEntity
  8
INTER PHASE SCREEN
100
AcDbBlockReference
  2
HANDLE TYPE G2 RIGHT UL
 10
-172.2296532240736
 20
0.0
 30
0.0
  0
INSERT
  5
1320
330
1319
100
AcDbEntity
  8
0
100
AcDbBlockReference
  2
525766 ecran entre phase right
 10
0.0
 20
0.0
 30
0.0
  0
INSERT
  5
149F
330
1319
100
AcDbEntity
  8
0
100
AcDbBlockReference
  2
56a463 module 1 pole 30A J right
 10
-40.00000000000002
 20
0.0000000000000142
 30
0.0
  0
INSERT
  5
1735
330
1319
100
AcDbEntity
  8
0
100
AcDbBlockReference
  2
528009 cage commande right
 10
-9.000000000000028
 20
-58.99999999999993
 30
0.0
  0
ENDBLK
  5
131B
330
1319
100
AcDbEntity
  8
0
100
AcDbBlockEnd
  0
BLOCK
  5
133C
330
1339
100
AcDbEntity
  8
0
100
AcDbBlockBegin
  2
REFERENCE
 70
     2
 10
0.0
 20
0.0
 30
0.0
  3
REFERENCE
  1

  0
ATTDEF
  5
133A
330
1339
100
AcDbEntity
  8
0
100
AcDbText
 10
-15.72254335260115
 20
-2.449421965317919
 30
0.0
 40
5.0
  1
0000 0000
  7
reference
 72
     4
 11
0.0
 21
0.0
 31
0.0
100
AcDbAttributeDefinition
  3
Référence
  2
00000000
 70
     4
  0
LWPOLYLINE
  5
133B
330
1339
100
AcDbEntity
  8
0
100
AcDbPolyline
 90
        8
 70
     1
 43
0.0
 10
-18.5
 20
-7.5
 10
18.5
 20
-7.5
 42
0.4142135623730951
 10
21.0
 20
-5.0
 10
21.0
 20
5.0
 42
0.4142135623730951
 10
18.5
 20
7.5
 10
-18.5
 20
7.5
 42
0.4142135623730951
 10
-21.0
 20
5.0
 10
-21.0
 20
-5.0
 42
0.4142135623730951
1001
GENIUS_GENREC_14
1002
{
1000
PYDIR
1011
-21.0
1021
7.5
1031
0.0
1002
}
1002
{
1000
PXDIR
1011
21.0
1021
-7.5
1031
0.0
1002
}
1002
{
1000
PORI
1011
-21.0
1021
-7.5
1031
0.0
1002
}
1002
{
1000
PINS
1011
-21.0
1021
-7.5
1031
0.0
1002
}
1002
{
1000
PINS2
1011
21.0
1021
7.5
1031
0.0
1002
}
1002
{
1000
C
1070
     1
1002
}
1001
GENIUS_GENODEF_13
1002
{
1000
HIER
1070
     0
1002
}
1002
{
1000
MANEDIT
1070
     0
1002
}
1002
{
1000
NOSEL
1070
     0
1002
}
1002
{
1000
BEHIND
1070
     0
1002
}
1002
{
1000
REACTOR
1002
}
1001
GENIUS_GENOBJ-N-REC_13
1002
{
1000
OWNER
1000
GEN
1002
}
  0
ENDBLK
  5
133D
330
1339
100
AcDbEntity
  8
0
100
AcDbBlockEnd
  0
BLOCK
  5
1480
330
145C
100
AcDbEntity
  8
0
100
AcDbBlockBegin
  2
56a463 module 1 pole 30A J right
 70
     0
 10
0.0
 20
0.0
 30
0.0
  3
56a463 module 1 pole 30A J right
  1

  0
LWPOLYLINE
  5
145D
330
145C
100
AcDbEntity
  8
0
100
AcDbPolyline
 90
       38
 70
     1
 43
0.0
 10
-32.5
 20
-59.80000000000001
 10
-32.5
 20
-58.80000000000001
 10
-40.49999999999999
 20
-58.80000000000001
 10
-40.50000000000003
 20
-59.79999999999995
 10
-47.5
 20
-59.79999999999995
 10
-47.5
 20
-55.20000000000004
 10
-51.00000000000003
 20
-55.20000000000004
 10
-51.00000000000003
 20
-7.0
 10
-47.50000000000002
 20
-7.0
 10
-47.50000000000002
 20
0.0
 10
-47.50000000000002
 20
7.0
 10
-51.00000000000003
 20
7.0
 10
-51.00000000000003
 20
55.19999999999999
 10
-47.5
 20
55.19999999999999
 10
-47.5
 20
59.80000000000001
 10
-40.49999999999999
 20
59.80000000000001
 10
-40.49999999999999
 20
58.80000000000001
 10
-32.5
 20
58.80000000000001
 10
-32.50000000000003
 20
59.80000000000001
 10
-26.00000000001092
 20
59.80000000000001
 10
-26.00000000001092
 20
61.80000000000001
 10
-17.00000000001455
 20
61.80000000000001
 10
-17.00000000001455
 20
59.80000000000001
 10
-11.5
 20
59.80000000000001
 10
-11.5
 20
57.0
 10
36.0
 20
57.0
 10
36.0
 20
18.5
 10
30.5
 20
18.5
 10
30.5
 20
0.0
 10
30.5
 20
-18.5
 10
36.0
 20
-18.5
 10
36.0
 20
-57.0
 10
-11.5
 20
-57.0
 10
-11.5
 20
-59.79999999999995
 10
-17.00000000001455
 20
-59.79999999999995
 10
-17.00000000001455
 20
-61.79999999999996
 10
-26.00000000001092
 20
-61.79999999999996
 10
-26.00000000001092
 20
-59.79999999999995
  0
LWPOLYLINE
  5
145E
330
145C
100
AcDbEntity
  8
BASIC DEVICE
100
AcDbPolyline
 90
        7
 70
     0
 43
0.0
 10
22.0
 20
-57.0
 10
22.0
 20
-51.69999999999999
 10
13.5
 20
-51.69999999999999
 10
13.5
 20
-40.0
 10
-8.456439749541999
 20
-40.0
 42
-0.5452497568062704
 10
-18.543560250458
 20
-40.0
 10
-51.00000000000003
 20
-40.0
  0
LWPOLYLINE
  5
145F
330
145C
100
AcDbEntity
  8
BASIC DEVICE
100
AcDbPolyline
 90
        7
 70
     0
 43
0.0
 10
22.0
 20
57.0
 10
22.0
 20
51.69999999999999
 10
13.5
 20
51.69999999999999
 10
13.5
 20
40.0
 10
-8.456439749541999
 20
40.0
 42
0.5452497568062704
 10
-18.543560250458
 20
40.0
 10
-51.00000000000003
 20
40.0
  0
LINE
  5
1460
330
145C
100
AcDbEntity
  8
AXIS
100
AcDbLine
 10
0.0
 20
0.0
 30
0.0
 11
11.10000000000002
 21
0.0
 31
0.0
1001
GENIUS_GENOREF_13
1005
147F
  0
LWPOLYLINE
  5
1461
330
145C
100
AcDbEntity
  8
BASIC DEVICE
100
AcDbPolyline
 90
        6
 70
     1
 43
0.0
 10
-20.25
 20
0.0
 10
-20.25
 20
-17.75
 10
20.25
 20
-17.75
 10
20.24999999999997
 20
0.0
 10
20.25
 20
17.75
 10
-20.25
 20
17.75
1001
GENIUS_GENREC_14
1002
{
1000
PYDIR
1011
-20.25000000000003
1021
-17.75
1031
0.0
1002
}
1002
{
1000
PXDIR
1011
20.25
1021
17.75
1031
0.0
1002
}
1002
{
1000
PORI
1011
20.24999999999997
1021
-17.75
1031
0.0
1002
}
1002
{
1000
PINS
1011
0.0
1021
0.0
1031
0.0
1002
}
1002
{
1000
HVAL
1000
40.5
1002
}
1002
{
1000
H
1070
     2
1002
}
1002
{
1000
WVAL
1000
35.5
1002
}
1002
{
1000
W
1070
     2
1002
}
1002
{
1000
C
1070
     4
1002
}
1001
GENIUS_GENODEF_13
1002
{
1000
HIER
1070
     0
1002
}
1002
{
1000
MANEDIT
1070
     0
1002
}
1002
{
1000
NOSEL
1070
     0
1002
}
1002
{
1000
BEHIND
1070
     0
1002
}
1002
{
1000
REACTOR
1002
}
1001
GENIUS_GENOBJ-N-REC_13
1002
{
1000
OWNER
1000
GEN
1002
}
  0
CIRCLE
  5
1462
330
145C
100
AcDbEntity
  8
BASIC DEVICE
100
AcDbCircle
 10
-13.5
 20
36.75
 30
0.0
 40
2.1
  0
CIRCLE
  5
1463
330
145C
100
AcDbEntity
  8
BASIC DEVICE
100
AcDbCircle
 10
-13.5
 20
36.75
 30
0.0
 40
4.0
  0
CIRCLE
  5
1464
330
145C
100
AcDbEntity
  8
BASIC DEVICE
100
AcDbCircle
 10
-43.5
 20
-53.0
 30
0.0
 40
3.0
  0
LWPOLYLINE
  5
1465
330
145C
100
AcDbEntity
  8
BASIC DEVICE
100
AcDbPolyline
 90
        4
 70
     0
 43
0.0
 10
-35.84999999999999
 20
-58.80000000000001
 10
-35.84999999999999
 20
-59.30000000000001
 42
-0.9999999999999998
 10
-39.84999999999999
 20
-59.30000000000001
 10
-39.84999999999999
 20
-58.80000000000001
  0
LWPOLYLINE
  5
1466
330
145C
100
AcDbEntity
  8
BASIC DEVICE
100
AcDbPolyline
 90
        4
 70
     0
 43
0.0
 10
-19.00000000001046
 20
-59.79999999999995
 10
-19.00000000001046
 20
-57.0
 10
-24.00000000001046
 20
-57.0
 10
-24.00000000001046
 20
-59.79999999999995
1001
GENIUS_GENREC_14
1002
{
1000
PYDIR
1011
-24.00000000001046
1021
57.0
1031
0.0
1002
}
1002
{
1000
PXDIR
1011
-19.00000000001046
1021
59.79999999999995
1031
0.0
1002
}
1002
{
1000
PORI
1011
-24.00000000001046
1021
59.79999999999995
1031
0.0
1002
}
1002
{
1000
PINS
1011
-24.00000000001046
1021
59.79999999999995
1031
0.0
1002
}
1002
{
1000
PINS2
1011
-19.00000000001046
1021
57.0
1031
0.0
1002
}
1002
{
1000
C
1070
     1
1002
}
1001
GENIUS_GENODEF_13
1002
{
1000
HIER
1070
     0
1002
}
1002
{
1000
MANEDIT
1070
     0
1002
}
1002
{
1000
NOSEL
1070
     0
1002
}
1002
{
1000
BEHIND
1070
     0
1002
}
1002
{
1000
REACTOR
1002
}
1001
GENIUS_GENOBJ-N-REC_13
1002
{
1000
OWNER
1000
GEN
1002
}
  0
LINE
  5
1467
330
145C
100
AcDbEntity
  8
BASIC DEVICE
100
AcDbLine
 10
-24.00000000001046
 20
-59.79999999999995
 30
0.0
 11
-19.00000000001046
 21
-59.79999999999995
 31
0.0
  0
LINE
  5
1468
330
145C
100
AcDbEntity
  8
AXIS
100
AcDbLine
 10
0.0
 20
0.0
 30
0.0
 11
0.0
 21
-11.10000000000002
 31
0.0
1001
GENIUS_GENOREF_13
1005
147F
  0
CIRCLE
  5
1469
330
145C
100
AcDbEntity
  8
BASIC DEVICE
100
AcDbCircle
 10
-35.0
 20
-15.0
 30
0.0
 40
3.649999999999999
  0
CIRCLE
  5
146A
330
145C
100
AcDbEntity
  8
BASIC DEVICE
100
AcDbCircle
 10
-13.5
 20
-36.75
 30
0.0
 40
4.0
  0
CIRCLE
  5
146B
330
145C
100
AcDbEntity
  8
BASIC DEVICE
100
AcDbCircle
 10
-13.5
 20
-36.75
 30
0.0
 40
2.1
  0
LWPOLYLINE
  5
146C
330
145C
100
AcDbEntity
  8
BASIC DEVICE
100
AcDbPolyline
 90
        4
 70
     0
 43
0.0
 10
-4.5
 20
-40.0
 10
-4.5
 20
-42.0
 10
4.5
 20
-42.0
 10
4.5
 20
-40.0
  0
CIRCLE
  5
146D
330
145C
100
AcDbEntity
  8
BASIC DEVICE
100
AcDbCircle
 10
0.0
 20
-27.10000000000003
 30
0.0
 40
2.6
  0
CIRCLE
  5
146E
330
145C
100
AcDbEntity
  8
BASIC DEVICE
100
AcDbCircle
 10
-35.0
 20
15.0
 30
0.0
 40
3.649999999999999
  0
LINE
  5
146F
330
145C
100
AcDbEntity
  8
AXIS
100
AcDbLine
 10
0.0
 20
0.0
 30
0.0
 11
-11.10000000000002
 21
0.0
 31
0.0
1001
GENIUS_GENOREF_13
1005
147F
  0
ARC
  5
1470
330
145C
100
AcDbEntity
  8
BASIC DEVICE
100
AcDbCircle
 10
0.0
 20
0.0
 30
0.0
 40
8.099999999999999
100
AcDbArc
 50
0.0
 51
180.0
  0
LINE
  5
1471
330
145C
100
AcDbEntity
  8
AXIS
100
AcDbLine
 10
0.0
 20
0.0
 30
0.0
 11
0.0
 21
11.10000000000002
 31
0.0
1001
GENIUS_GENOREF_13
1005
147F
  0
ARC
  5
1472
330
145C
100
AcDbEntity
  8
BASIC DEVICE
100
AcDbCircle
 10
0.0
 20
0.0
 30
0.0
 40
8.099999999999999
100
AcDbArc
 50
180.0
 51
0.0
  0
CIRCLE
  5
1473
330
145C
100
AcDbEntity
  8
BASIC DEVICE
100
AcDbCircle
 10
0.0
 20
27.10000000000003
 30
0.0
 40
2.6
  0
LWPOLYLINE
  5
1474
330
145C
100
AcDbEntity
  8
BASIC DEVICE
100
AcDbPolyline
 90
        4
 70
     0
 43
0.0
 10
-35.84999999999999
 20
58.80000000000001
 10
-35.84999999999999
 20
59.30000000000001
 42
0.9999999999999998
 10
-39.84999999999999
 20
59.30000000000001
 10
-39.84999999999999
 20
58.80000000000001
  0
CIRCLE
  5
1475
330
145C
100
AcDbEntity
  8
BASIC DEVICE
100
AcDbCircle
 10
-43.5
 20
53.0
 30
0.0
 40
3.0
  0
LINE
  5
1476
330
145C
100
AcDbEntity
  8
BASIC DEVICE
100
AcDbLine
 10
-24.00000000001046
 20
59.80000000000001
 30
0.0
 11
-19.00000000001046
 21
59.80000000000001
 31
0.0
  0
LWPOLYLINE
  5
1477
330
145C
100
AcDbEntity
  8
BASIC DEVICE
100
AcDbPolyline
 90
        4
 70
     0
 43
0.0
 10
-19.00000000001046
 20
59.80000000000001
 10
-19.00000000001046
 20
57.0
 10
-24.00000000001046
 20
57.0
 10
-24.00000000001046
 20
59.80000000000001
1001
GENIUS_GENREC_14
1002
{
1000
PYDIR
1011
-24.00000000001046
1021
57.0
1031
0.0
1002
}
1002
{
1000
PXDIR
1011
-19.00000000001046
1021
59.80000000000001
1031
0.0
1002
}
1002
{
1000
PORI
1011
-24.00000000001046
1021
59.80000000000001
1031
0.0
1002
}
1002
{
1000
PINS
1011
-24.00000000001046
1021
59.80000000000001
1031
0.0
1002
}
1002
{
1000
PINS2
1011
-19.00000000001046
1021
57.0
1031
0.0
1002
}
1002
{
1000
C
1070
     1
1002
}
1001
GENIUS_GENODEF_13
1002
{
1000
HIER
1070
     0
1002
}
1002
{
1000
MANEDIT
1070
     0
1002
}
1002
{
1000
NOSEL
1070
     0
1002
}
1002
{
1000
BEHIND
1070
     0
1002
}
1002
{
1000
REACTOR
1002
}
1001
GENIUS_GENOBJ-N-REC_13
1002
{
1000
OWNER
1000
GEN
1002
}
  0
LWPOLYLINE
  5
1478
330
145C
100
AcDbEntity
  8
BASIC DEVICE
100
AcDbPolyline
 90
        4
 70
     0
 43
0.0
 10
-4.5
 20
40.0
 10
-4.5
 20
42.0
 10
4.5
 20
42.0
 10
4.5
 20
40.0
  0
LWPOLYLINE
  5
1479
330
145C
100
AcDbEntity
  8
BASIC DEVICE
100
AcDbPolyline
 90
        2
 70
     0
 43
0.0
 10
23.1
 20
-57.0
 10
32.5
 20
-57.0
  0
CIRCLE
  5
147A
330
145C
100
AcDbEntity
  8
BASIC DEVICE
100
AcDbCircle
 10
24.90000000000001
 20
0.0
 30
0.0
 40
1.7
  0
CIRCLE
  5
147B
330
145C
100
AcDbEntity
  8
BASIC DEVICE
100
AcDbCircle
 10
24.90000000000001
 20
0.0
 30
0.0
 40
1.7
  0
POINT
  5
147C
330
145C
100
AcDbEntity
  8
POINT D'ACCROCHAGE
100
AcDbPoint
 10
36.0
 20
0.0
 30
0.0
  0
POINT
  5
147D
330
145C
100
AcDbEntity
  8
POINT D'ACCROCHAGE
100
AcDbPoint
 10
36.0
 20
0.0
 30
0.0
  0
LWPOLYLINE
  5
147E
330
145C
100
AcDbEntity
  8
BASIC DEVICE
100
AcDbPolyline
 90
        2
 70
     0
 43
0.0
 10
23.1
 20
57.0
 10
32.5
 20
57.0
  0
POINT
  5
147F
330
145C
100
AcDbEntity
  8
0
 60
     1
100
AcDbPoint
 10
68.77754776246703
 20
551.758558005428
 30
0.0
1001
GENIUS_GENODEF_13
1002
{
1000
HIER
1070
    10
1002
}
1002
{
1000
MANEDIT
1070
     0
1002
}
1002
{
1000
NOSEL
1070
     0
1002
}
1002
{
1000
BEHIND
1070
     0
1002
}
1002
{
1000
REACTOR
1002
}
1001
GENIUS_GENOBJ-N-CRS_13
1002
{
1000
OWNER
1000
GEN
1002
}
1001
GENIUS_GENOENT_13
1002
{
1000
MYREF
1005
147F
1002
}
1002
{
1000
GRP
1005
0
1002
}
1001
GENIUS_GENOLIS_13
1002
{
1000
ENT
1005
1468
1005
146F
1005
1471
1005
1460
1002
}
  0
ENDBLK
  5
1481
330
145C
100
AcDbEntity
  8
0
100
AcDbBlockEnd
  0
BLOCK
  5
14E9
330
14D6
100
AcDbEntity
  8
0
100
AcDbBlockBegin
  2
528008+528009 assembly back
 70
     0
 10
0.0
 20
0.0
 30
0.0
  3
528008+528009 assembly back
  1

  0
LWPOLYLINE
  5
14D7
330
14D6
100
AcDbEntity
  8
CAGE COMMANDE
100
AcDbPolyline
 90
       14
 70
     1
 43
0.0
 10
18.10000000000002
 20
63.19999999999999
 10
18.10000000000002
 20
76.60000000000002
 10
0.0
 20
76.60000000000002
 10
0.0
 20
0.0
 10
18.10000000000002
 20
0.0
 10
18.10000000000002
 20
6.699999999999988
 10
9.699999999999988
 20
6.699999999999988
 10
9.699999999999988
 20
18.69999999999999
 10
18.10000000000002
 20
18.70000000000004
 10
18.10000000000002
 20
58.75
 10
17.10000000000002
 20
59.75
 10
2.0
 20
59.75
 10
2.0
 20
62.19999999999998
 10
17.10000000000002
 20
62.19999999999998
  0
LWPOLYLINE
  5
14D8
330
14D6
100
AcDbEntity
  8
CAGE COMMANDE
100
AcDbPolyline
 90
        2
 70
     0
 43
0.0
 10
10.09999999999996
 20
80.10000000000003
 10
26.10000000000002
 20
80.10000000000003
  0
LWPOLYLINE
  5
14D9
330
14D6
100
AcDbEntity
  8
CAGE COMMANDE
100
AcDbPolyline
 90
        6
 70
     0
 43
0.0
 10
13.47411675766443
 20
91.93089674503994
 42
-0.4739973168681059
 10
14.07379321264204
 20
90.93662006812314
 42
0.279609442524925
 10
14.59145623283353
 20
88.41849007206667
 42
0.4222686347450837
 10
21.60854376716628
 20
88.41849007206645
 42
0.2796094425247921
 10
22.12620678735834
 20
90.93662006812195
 42
-0.4739973168679485
 10
22.7258832423359
 20
91.93089674503841
  0
LWPOLYLINE
  5
14DA
330
14D6
100
AcDbEntity
  8
CAGE COMMANDE
100
AcDbPolyline
 90
       15
 70
     0
 43
0.0
 10
10.09999999999996
 20
76.60000000000002
 10
10.09999999999996
 20
76.89999999999997
 10
7.100000000000022
 20
76.89999999999997
 10
7.100000000000022
 20
80.09999999999996
 10
10.09999999999996
 20
80.10000000000003
 10
10.09999999999996
 20
92.60000000000003
 42
0.0264787072379964
 10
13.47411675766443
 20
91.93089674503994
 42
0.071531581690532
 10
22.72588324233567
 20
91.93089674503994
 42
0.0264787072379951
 10
26.09999999999997
 20
92.60000000000003
 10
26.09999999999997
 20
92.60000000000003
 10
26.09999999999997
 20
80.10000000000003
 10
28.67073170731709
 20
80.10000000000003
 10
28.67073170731709
 20
76.89999999999997
 10
26.09999999999997
 20
76.89999999999997
 10
26.09999999999997
 20
76.60000000000002
  0
LINE
  5
14DB
330
14D6
100
AcDbEntity
  8
CAGE COMMANDE
100
AcDbLine
 10
13.92981508145783
 20
90.10421392623754
 30
0.0
 11
13.92981508145783
 21
80.10000000000003
 31
0.0
  0
LWPOLYLINE
  5
14DC
330
14D6
100
AcDbEntity
  8
CAGE COMMANDE
100
AcDbPolyline
 90
        3
 70
     0
 43
0.0
 10
3.100000000000022
 20
76.60000000000002
 10
3.100000000000022
 20
84.39999999999997
 10
10.09999999999996
 20
84.39999999999997
  0
LWPOLYLINE
  5
14DD
330
14D6
100
AcDbEntity
  8
CAGE COMMANDE
100
AcDbPolyline
 90
        2
 70
     0
 43
0.0
 10
3.100000000000022
 20
83.19999999999998
 10
10.09999999999996
 20
83.19999999999998
  0
LWPOLYLINE
  5
14DE
330
14D6
100
AcDbEntity
  8
CAGE COMMANDE
100
AcDbPolyline
 90
        3
 70
     0
 43
0.0
 10
5.100000000000022
 20
76.60000000000002
 10
5.100000000000022
 20
82.39999999999998
 10
10.09999999999996
 20
82.39999999999998
  0
LWPOLYLINE
  5
14DF
330
14D6
100
AcDbEntity
  8
CAGE COMMANDE
100
AcDbPolyline
 90
       14
 70
     1
 43
0.0
 10
18.10000000000002
 20
63.19999999999999
 10
18.10000000000002
 20
76.60000000000002
 10
36.19999999999999
 20
76.60000000000002
 10
36.19999999999999
 20
0.0
 10
18.10000000000002
 20
0.0
 10
18.10000000000002
 20
6.699999999999988
 10
20.0
 20
6.699999999999988
 10
20.0
 20
18.69999999999999
 10
18.10000000000002
 20
18.70000000000004
 10
18.10000000000002
 20
58.75
 10
19.09999999999996
 20
59.75
 10
34.19999999999999
 20
59.75
 10
34.19999999999999
 20
62.19999999999998
 10
19.09999999999996
 20
62.19999999999998
  0
LINE
  5
14E0
330
14D6
100
AcDbEntity
  8
CAGE COMMANDE
100
AcDbLine
 10
16.60000000000002
 20
59.75
 30
0.0
 11
16.60000000000002
 21
18.69999999999999
 31
0.0
  0
LINE
  5
14E1
330
14D6
100
AcDbEntity
  8
CAGE COMMANDE
100
AcDbLine
 10
16.60000000000002
 20
6.699999999999988
 30
0.0
 11
16.60000000000002
 21
0.0
 31
0.0
  0
LINE
  5
14E2
330
14D6
100
AcDbEntity
  8
CAGE COMMANDE
100
AcDbLine
 10
22.21942173946331
 20
89.60518333584843
 30
0.0
 11
22.21942173946331
 21
80.10000000000003
 31
0.0
  0
LWPOLYLINE
  5
14E3
330
14D6
100
AcDbEntity
  8
CAGE COMMANDE
100
AcDbPolyline
 90
        3
 70
     0
 43
0.0
 10
31.09999999999997
 20
76.60000000000002
 10
31.09999999999997
 20
82.39999999999998
 10
26.09999999999997
 20
82.39999999999998
  0
LWPOLYLINE
  5
14E4
330
14D6
100
AcDbEntity
  8
CAGE COMMANDE
100
AcDbPolyline
 90
        2
 70
     0
 43
0.0
 10
33.09999999999997
 20
83.19999999999998
 10
26.09999999999997
 20
83.19999999999998
  0
LWPOLYLINE
  5
14E5
330
14D6
100
AcDbEntity
  8
CAGE COMMANDE
100
AcDbPolyline
 90
        3
 70
     0
 43
0.0
 10
33.09999999999997
 20
76.60000000000002
 10
33.09999999999997
 20
84.39999999999997
 10
26.09999999999997
 20
84.39999999999997
  0
LINE
  5
14E6
330
14D6
100
AcDbEntity
  8
CAGE COMMANDE
100
AcDbLine
 10
16.60000000000002
 20
76.60000000000002
 30
0.0
 11
16.60000000000002
 21
62.19999999999998
 31
0.0
  0
LINE
  5
14E7
330
14D6
100
AcDbEntity
  8
AXIS
100
AcDbLine
 10
39.19999999999999
 20
31.0
 30
0.0
 11
-3.0
 21
31.0
 31
0.0
1001
GENIUS_GENODEF_13
1002
{
1000
HIER
1070
     0
1002
}
1002
{
1000
MANEDIT
1070
     0
1002
}
1002
{
1000
NOSEL
1070
     0
1002
}
1002
{
1000
BEHIND
1070
     0
1002
}
1002
{
1000
REACTOR
1002
}
1001
GENIUS_GENOBJ-N-CEN_13
1002
{
1000
OWNER
1000
GEN
1002
}
  0
LINE
  5
14E8
330
14D6
100
AcDbEntity
  8
AXIS
100
AcDbLine
 10
18.10000000000002
 20
70.60000000000002
 30
0.0
 11
18.10000000000008
 21
97.59999999999998
 31
0.0
1001
GENIUS_GENODEF_13
1002
{
1000
HIER
1070
     0
1002
}
1002
{
1000
MANEDIT
1070
     0
1002
}
1002
{
1000
NOSEL
1070
     0
1002
}
1002
{
1000
BEHIND
1070
     0
1002
}
1002
{
1000
OTHER
1070
     0
1002
}
1002
{
1000
REACTOR
1002
}
1001
GENIUS_GENOBJ-N-CEN_13
1002
{
1000
OWNER
1000
GEN
1002
}
  0
ENDBLK
  5
14EA
330
14D6
100
AcDbEntity
  8
0
100
AcDbBlockEnd
  0
BLOCK
  5
15DA
330
14F3
100
AcDbEntity
  8
0
100
AcDbBlockBegin
  2
doigt de commande right
 70
     0
 10
0.0
 20
0.0
 30
0.0
  3
doigt de commande right
  1

  0
LINE
  5
14F4
330
14F3
100
AcDbEntity
  8
AXIS
100
AcDbLine
 10
3.0
 20
0.0
 30
0.0
 11
-68.85791203388476
 21
0.0
 31
0.0
1001
GENIUS_GENODEF_13
1002
{
1000
HIER
1070
     0
1002
}
1002
{
1000
MANEDIT
1070
     0
1002
}
1002
{
1000
NOSEL
1070
     0
1002
}
1002
{
1000
BEHIND
1070
     0
1002
}
1002
{
1000
REACTOR
1002
}
1001
GENIUS_GENOBJ-N-CEN_13
1002
{
1000
OWNER
1000
GEN
1002
}
  0
POLYLINE
  5
14F5
330
14F3
100
AcDbEntity
  8
CAGE COMMANDE
100
AcDb2dPolyline
 66
     1
 10
0.0
 20
0.0
 30
0.0
  0
VERTEX
  5
14F6
330
14F5
100
AcDbEntity
  8
CAGE COMMANDE
100
AcDbVertex
100
AcDb2dVertex
 10
-50.11387226697355
 20
8.009968354430384
 30
0.0
  0
VERTEX
  5
14F7
330
14F5
100
AcDbEntity
  8
CAGE COMMANDE
100
AcDbVertex
100
AcDb2dVertex
 10
-49.99129027617954
 20
4.791845512082858
 30
0.0
  0
VERTEX
  5
14F8
330
14F5
100
AcDbEntity
  8
CAGE COMMANDE
100
AcDbVertex
100
AcDb2dVertex
 10
-49.97024309551211
 20
2.735330840046032
 30
0.0
  0
VERTEX
  5
14F9
330
14F5
100
AcDbEntity
  8
CAGE COMMANDE
100
AcDbVertex
100
AcDb2dVertex
 10
-49.96079474582751
 20
0.0
 30
0.0
  0
VERTEX
  5
14FA
330
14F5
100
AcDbEntity
  8
CAGE COMMANDE
100
AcDbVertex
100
AcDb2dVertex
 10
-49.97198216340627
 20
-3.002344649021864
 30
0.0
  0
VERTEX
  5
14FB
330
14F5
100
AcDbEntity
  8
CAGE COMMANDE
100
AcDbVertex
100
AcDb2dVertex
 10
-49.99008630609899
 20
-4.704044879171448
 30
0.0
  0
VERTEX
  5
14FC
330
14F5
100
AcDbEntity
  8
CAGE COMMANDE
100
AcDbVertex
100
AcDb2dVertex
 10
-50.04716340621405
 20
-6.653584579976978
 30
0.0
  0
VERTEX
  5
14FD
330
14F5
100
AcDbEntity
  8
CAGE COMMANDE
100
AcDbVertex
100
AcDb2dVertex
 10
-50.14700373993098
 20
-6.976783659378583
 30
0.0
  0
VERTEX
  5
14FE
330
14F5
100
AcDbEntity
  8
CAGE COMMANDE
100
AcDbVertex
100
AcDb2dVertex
 10
-50.41143124280786
 20
-10.06630466052934
 30
0.0
  0
VERTEX
  5
14FF
330
14F5
100
AcDbEntity
  8
CAGE COMMANDE
100
AcDbVertex
100
AcDb2dVertex
 10
-50.4916513233602
 20
-10.66084292289986
 30
0.0
  0
VERTEX
  5
1500
330
14F5
100
AcDbEntity
  8
CAGE COMMANDE
100
AcDbVertex
100
AcDb2dVertex
 10
-56.68603279631764
 20
-14.26579689298043
 30
0.0
  0
VERTEX
  5
1501
330
14F5
100
AcDbEntity
  8
CAGE COMMANDE
100
AcDbVertex
100
AcDb2dVertex
 10
-56.9251323360184
 20
-14.31935126582277
 30
0.0
  0
VERTEX
  5
1502
330
14F5
100
AcDbEntity
  8
CAGE COMMANDE
100
AcDbVertex
100
AcDb2dVertex
 10
-57.02359033371692
 20
-14.31917289988493
 30
0.0
  0
VERTEX
  5
1503
330
14F5
100
AcDbEntity
  8
CAGE COMMANDE
100
AcDbVertex
100
AcDb2dVertex
 10
-57.30621116225546
 20
-14.24751438434981
 30
0.0
  0
VERTEX
  5
1504
330
14F5
100
AcDbEntity
  8
CAGE COMMANDE
100
AcDbVertex
100
AcDb2dVertex
 10
-57.49884637514384
 20
-14.09964902186419
 30
0.0
  0
VERTEX
  5
1505
330
14F5
100
AcDbEntity
  8
CAGE COMMANDE
100
AcDbVertex
100
AcDb2dVertex
 10
-57.60274453394711
 20
-13.99191599539699
 30
0.0
  0
VERTEX
  5
1506
330
14F5
100
AcDbEntity
  8
CAGE COMMANDE
100
AcDbVertex
100
AcDb2dVertex
 10
-60.37165276179519
 20
-8.553850690448797
 30
0.0
  0
VERTEX
  5
1507
330
14F5
100
AcDbEntity
  8
CAGE COMMANDE
100
AcDbVertex
100
AcDb2dVertex
 10
-60.98046029919448
 20
-6.612560414269239
 30
0.0
  0
VERTEX
  5
1508
330
14F5
100
AcDbEntity
  8
CAGE COMMANDE
100
AcDbVertex
100
AcDb2dVertex
 10
-61.47324079401613
 20
-4.48389672036825
 30
0.0
  0
VERTEX
  5
1509
330
14F5
100
AcDbEntity
  8
CAGE COMMANDE
100
AcDbVertex
100
AcDb2dVertex
 10
-61.65218642117378
 20
-3.320817031070191
 30
0.0
  0
VERTEX
  5
150A
330
14F5
100
AcDbEntity
  8
CAGE COMMANDE
100
AcDbVertex
100
AcDb2dVertex
 10
-61.7836421173763
 20
-2.171962025316446
 30
0.0
  0
VERTEX
  5
150B
330
14F5
100
AcDbEntity
  8
CAGE COMMANDE
100
AcDbVertex
100
AcDb2dVertex
 10
-61.84789844649026
 20
-1.225240218642113
 30
0.0
  0
VERTEX
  5
150C
330
14F5
100
AcDbEntity
  8
CAGE COMMANDE
100
AcDbVertex
100
AcDb2dVertex
 10
-61.87514384349828
 20
-0.4160385500575501
 30
0.0
  0
VERTEX
  5
150D
330
14F5
100
AcDbEntity
  8
CAGE COMMANDE
100
AcDbVertex
100
AcDb2dVertex
 10
-61.87826524741081
 20
-0.0877560414269283
 30
0.0
  0
VERTEX
  5
150E
330
14F5
100
AcDbEntity
  8
CAGE COMMANDE
100
AcDbVertex
100
AcDb2dVertex
 10
-61.87797791521518
 20
0.0
 30
0.0
  0
VERTEX
  5
150F
330
14F5
100
AcDbEntity
  8
CAGE COMMANDE
100
AcDbVertex
100
AcDb2dVertex
 10
-61.86283659378597
 20
0.8869246260069019
 30
0.0
  0
VERTEX
  5
1510
330
14F5
100
AcDbEntity
  8
CAGE COMMANDE
100
AcDbVertex
100
AcDb2dVertex
 10
-61.79786680092064
 20
2.002558975834261
 30
0.0
  0
VERTEX
  5
1511
330
14F5
100
AcDbEntity
  8
CAGE COMMANDE
100
AcDbVertex
100
AcDb2dVertex
 10
-61.72380034522439
 20
2.777336018411972
 30
0.0
  0
VERTEX
  5
1512
330
14F5
100
AcDbEntity
  8
CAGE COMMANDE
100
AcDbVertex
100
AcDb2dVertex
 10
-61.65673475258921
 20
3.320817031070191
 30
0.0
  0
VERTEX
  5
1513
330
14F5
100
AcDbEntity
  8
CAGE COMMANDE
100
AcDbVertex
100
AcDb2dVertex
 10
-61.45094505178366
 20
4.605051783659376
 30
0.0
  0
VERTEX
  5
1514
330
14F5
100
AcDbEntity
  8
CAGE COMMANDE
100
AcDbVertex
100
AcDb2dVertex
 10
-61.32809551208288
 20
5.220325086306104
 30
0.0
  0
VERTEX
  5
1515
330
14F5
100
AcDbEntity
  8
CAGE COMMANDE
100
AcDbVertex
100
AcDb2dVertex
 10
-61.15476841196778
 20
5.974367088607579
 30
0.0
  0
VERTEX
  5
1516
330
14F5
100
AcDbEntity
  8
CAGE COMMANDE
100
AcDbVertex
100
AcDb2dVertex
 10
-60.99312428078254
 20
6.598469505178371
 30
0.0
  0
VERTEX
  5
1517
330
14F5
100
AcDbEntity
  8
CAGE COMMANDE
100
AcDbVertex
100
AcDb2dVertex
 10
-60.84561565017264
 20
7.116711737629429
 30
0.0
  0
VERTEX
  5
1518
330
14F5
100
AcDbEntity
  8
CAGE COMMANDE
100
AcDbVertex
100
AcDb2dVertex
 10
-60.66591196777911
 20
7.636024165707709
 30
0.0
  0
VERTEX
  5
1519
330
14F5
100
AcDbEntity
  8
CAGE COMMANDE
100
AcDbVertex
100
AcDb2dVertex
 10
-60.59969361334869
 20
7.731004027617956
 30
0.0
  0
VERTEX
  5
151A
330
14F5
100
AcDbEntity
  8
CAGE COMMANDE
100
AcDbVertex
100
AcDb2dVertex
 10
-60.52054372842349
 20
7.816173762945908
 30
0.0
  0
VERTEX
  5
151B
330
14F5
100
AcDbEntity
  8
CAGE COMMANDE
100
AcDbVertex
100
AcDb2dVertex
 10
-60.36108457997698
 20
7.925155350978116
 30
0.0
  0
VERTEX
  5
151C
330
14F5
100
AcDbEntity
  8
CAGE COMMANDE
100
AcDbVertex
100
AcDb2dVertex
 10
-60.25433256616804
 20
7.972065592635232
 30
0.0
  0
VERTEX
  5
151D
330
14F5
100
AcDbEntity
  8
CAGE COMMANDE
100
AcDbVertex
100
AcDb2dVertex
 10
-60.06419447640968
 20
8.000871691599542
 30
0.0
  0
VERTEX
  5
151E
330
14F5
100
AcDbEntity
  8
CAGE COMMANDE
100
AcDbVertex
100
AcDb2dVertex
 10
-51.06465189873421
 20
8.010681818181808
 30
0.0
  0
SEQEND
  5
151F
330
14F5
100
AcDbEntity
  8
CAGE COMMANDE
  0
POLYLINE
  5
1520
330
14F3
100
AcDbEntity
  8
CAGE COMMANDE
100
AcDb2dPolyline
 66
     1
 10
0.0
 20
0.0
 30
0.0
  0
VERTEX
  5
1521
330
1520
100
AcDbEntity
  8
CAGE COMMANDE
100
AcDbVertex
100
AcDb2dVertex
 10
-49.20304660529348
 20
-7.081306098964319
 30
0.0
  0
VERTEX
  5
1522
330
1520
100
AcDbEntity
  8
CAGE COMMANDE
100
AcDbVertex
100
AcDb2dVertex
 10
-49.42760932105869
 20
-6.863565880322198
 30
0.0
  0
VERTEX
  5
1523
330
1520
100
AcDbEntity
  8
CAGE COMMANDE
100
AcDbVertex
100
AcDb2dVertex
 10
-49.52624568469508
 20
-6.773669447640969
 30
0.0
  0
VERTEX
  5
1524
330
1520
100
AcDbEntity
  8
CAGE COMMANDE
100
AcDbVertex
100
AcDb2dVertex
 10
-49.67527042577678
 20
-6.685601265822782
 30
0.0
  0
VERTEX
  5
1525
330
1520
100
AcDbEntity
  8
CAGE COMMANDE
100
AcDbVertex
100
AcDb2dVertex
 10
-49.95405638665137
 20
-6.613898158803209
 30
0.0
  0
VERTEX
  5
1526
330
1520
100
AcDbEntity
  8
CAGE COMMANDE
100
AcDbVertex
100
AcDb2dVertex
 10
-50.04583167110695
 20
-6.608097502724717
 30
0.0
  0
VERTEX
  5
1527
330
1520
100
AcDbEntity
  8
CAGE COMMANDE
100
AcDbVertex
100
AcDb2dVertex
 10
-50.59412255466054
 20
-6.5388060989643
 30
0.0
  0
VERTEX
  5
1528
330
1520
100
AcDbEntity
  8
CAGE COMMANDE
100
AcDbVertex
100
AcDb2dVertex
 10
-51.16400172612202
 20
-6.484404487917146
 30
0.0
  0
VERTEX
  5
1529
330
1520
100
AcDbEntity
  8
CAGE COMMANDE
100
AcDbVertex
100
AcDb2dVertex
 10
-52.31142980437282
 20
-6.421173762945926
 30
0.0
  0
VERTEX
  5
152A
330
1520
100
AcDbEntity
  8
CAGE COMMANDE
100
AcDbVertex
100
AcDb2dVertex
 10
-52.88835443037976
 20
-6.409579976985043
 30
0.0
  0
VERTEX
  5
152B
330
1520
100
AcDbEntity
  8
CAGE COMMANDE
100
AcDbVertex
100
AcDb2dVertex
 10
-54.04666283084003
 20
-6.420103567318733
 30
0.0
  0
VERTEX
  5
152C
330
1520
100
AcDbEntity
  8
CAGE COMMANDE
100
AcDbVertex
100
AcDb2dVertex
 10
-54.91093498273881
 20
-6.454216052934384
 30
0.0
  0
VERTEX
  5
152D
330
1520
100
AcDbEntity
  8
CAGE COMMANDE
100
AcDbVertex
100
AcDb2dVertex
 10
-55.77101553509783
 20
-6.504024741081707
 30
0.0
  0
VERTEX
  5
152E
330
1520
100
AcDbEntity
  8
CAGE COMMANDE
100
AcDbVertex
100
AcDb2dVertex
 10
-56.34151898734178
 20
-6.546565017261229
 30
0.0
  0
VERTEX
  5
152F
330
1520
100
AcDbEntity
  8
CAGE COMMANDE
100
AcDbVertex
100
AcDb2dVertex
 10
-57.1938852128884
 20
-6.622013808975822
 30
0.0
  0
VERTEX
  5
1530
330
1520
100
AcDbEntity
  8
CAGE COMMANDE
100
AcDbVertex
100
AcDb2dVertex
 10
-58.04304085155354
 20
-6.707718642117356
 30
0.0
  0
VERTEX
  5
1531
330
1520
100
AcDbEntity
  8
CAGE COMMANDE
100
AcDbVertex
100
AcDb2dVertex
 10
-58.88800489067893
 20
-6.804928078250839
 30
0.0
  0
VERTEX
  5
1532
330
1520
100
AcDbEntity
  8
CAGE COMMANDE
100
AcDbVertex
100
AcDb2dVertex
 10
-59.44927790563866
 20
-6.874089470655917
 30
0.0
  0
VERTEX
  5
1533
330
1520
100
AcDbEntity
  8
CAGE COMMANDE
100
AcDbVertex
100
AcDb2dVertex
 10
-60.00876726121981
 20
-6.946773590333719
 30
0.0
  0
VERTEX
  5
1534
330
1520
100
AcDbEntity
  8
CAGE COMMANDE
100
AcDbVertex
100
AcDb2dVertex
 10
-60.32367232451093
 20
-6.984899309551224
 30
0.0
  0
VERTEX
  5
1535
330
1520
100
AcDbEntity
  8
CAGE COMMANDE
100
AcDbVertex
100
AcDb2dVertex
 10
-60.49905063291141
 20
-6.970630034522429
 30
0.0
  0
VERTEX
  5
1536
330
1520
100
AcDbEntity
  8
CAGE COMMANDE
100
AcDbVertex
100
AcDb2dVertex
 10
-60.59898014959725
 20
-6.943429228998866
 30
0.0
  0
VERTEX
  5
1537
330
1520
100
AcDbEntity
  8
CAGE COMMANDE
100
AcDbVertex
100
AcDb2dVertex
 10
-60.75081415420021
 20
-6.87199367088607
 30
0.0
  0
VERTEX
  5
1538
330
1520
100
AcDbEntity
  8
CAGE COMMANDE
100
AcDbVertex
100
AcDb2dVertex
 10
-60.85337456846954
 20
-6.791996547756042
 30
0.0
  0
VERTEX
  5
1539
330
1520
100
AcDbEntity
  8
CAGE COMMANDE
100
AcDbVertex
100
AcDb2dVertex
 10
-60.91638233601847
 20
-6.719981300345239
 30
0.0
  0
VERTEX
  5
153A
330
1520
100
AcDbEntity
  8
CAGE COMMANDE
100
AcDbVertex
100
AcDb2dVertex
 10
-60.96743958573076
 20
-6.641009781357865
 30
0.0
  0
VERTEX
  5
153B
330
1520
100
AcDbEntity
  8
CAGE COMMANDE
100
AcDbVertex
100
AcDb2dVertex
 10
-60.99348101265822
 20
-6.584111047180641
 30
0.0
  0
SEQEND
  5
153C
330
1520
100
AcDbEntity
  8
CAGE COMMANDE
  0
POLYLINE
  5
153D
330
14F3
100
AcDbEntity
  8
CAGE COMMANDE
100
AcDb2dPolyline
 66
     1
 10
0.0
 20
0.0
 30
0.0
  0
VERTEX
  5
153E
330
153D
100
AcDbEntity
  8
CAGE COMMANDE
100
AcDbVertex
100
AcDb2dVertex
 10
-49.27644418872268
 20
-7.230152474108166
 30
0.0
  0
VERTEX
  5
153F
330
153D
100
AcDbEntity
  8
CAGE COMMANDE
100
AcDbVertex
100
AcDb2dVertex
 10
-49.38529200230154
 20
-7.118807537399305
 30
0.0
  0
VERTEX
  5
1540
330
153D
100
AcDbEntity
  8
CAGE COMMANDE
100
AcDbVertex
100
AcDb2dVertex
 10
-49.57716915995399
 20
-7.055443037974669
 30
0.0
  0
VERTEX
  5
1541
330
153D
100
AcDbEntity
  8
CAGE COMMANDE
100
AcDbVertex
100
AcDb2dVertex
 10
-49.73216915995397
 20
-7.027885500575365
 30
0.0
  0
VERTEX
  5
1542
330
153D
100
AcDbEntity
  8
CAGE COMMANDE
100
AcDbVertex
100
AcDb2dVertex
 10
-49.94005466052937
 20
-7.010316455696198
 30
0.0
  0
VERTEX
  5
1543
330
153D
100
AcDbEntity
  8
CAGE COMMANDE
100
AcDbVertex
100
AcDb2dVertex
 10
-50.11926783659379
 20
-7.010004315304939
 30
0.0
  0
VERTEX
  5
1544
330
153D
100
AcDbEntity
  8
CAGE COMMANDE
100
AcDbVertex
100
AcDb2dVertex
 10
-50.96775460299193
 20
-6.967330264672057
 30
0.0
  0
VERTEX
  5
1545
330
153D
100
AcDbEntity
  8
CAGE COMMANDE
100
AcDbVertex
100
AcDb2dVertex
 10
-51.78337744533951
 20
-6.956271576524756
 30
0.0
  0
VERTEX
  5
1546
330
153D
100
AcDbEntity
  8
CAGE COMMANDE
100
AcDbVertex
100
AcDb2dVertex
 10
-52.60163118527043
 20
-6.979459148446494
 30
0.0
  0
VERTEX
  5
1547
330
153D
100
AcDbEntity
  8
CAGE COMMANDE
100
AcDbVertex
100
AcDb2dVertex
 10
-53.14814441887228
 20
-7.008621979286544
 30
0.0
  0
VERTEX
  5
1548
330
153D
100
AcDbEntity
  8
CAGE COMMANDE
100
AcDbVertex
100
AcDb2dVertex
 10
-54.24224108170313
 20
-7.097403624856156
 30
0.0
  0
VERTEX
  5
1549
330
153D
100
AcDbEntity
  8
CAGE COMMANDE
100
AcDbVertex
100
AcDb2dVertex
 10
-55.05924626006907
 20
-7.185204257767537
 30
0.0
  0
VERTEX
  5
154A
330
153D
100
AcDbEntity
  8
CAGE COMMANDE
100
AcDbVertex
100
AcDb2dVertex
 10
-55.8700086306099
 20
-7.290038837744532
 30
0.0
  0
VERTEX
  5
154B
330
153D
100
AcDbEntity
  8
CAGE COMMANDE
100
AcDbVertex
100
AcDb2dVertex
 10
-56.40827243958574
 20
-7.366736191024187
 30
0.0
  0
VERTEX
  5
154C
330
153D
100
AcDbEntity
  8
CAGE COMMANDE
100
AcDbVertex
100
AcDb2dVertex
 10
-57.21230149597238
 20
-7.491012658227845
 30
0.0
  0
VERTEX
  5
154D
330
153D
100
AcDbEntity
  8
CAGE COMMANDE
100
AcDbVertex
100
AcDb2dVertex
 10
-58.01196058688153
 20
-7.626347813578831
 30
0.0
  0
VERTEX
  5
154E
330
153D
100
AcDbEntity
  8
CAGE COMMANDE
100
AcDbVertex
100
AcDb2dVertex
 10
-58.80814154200233
 20
-7.769798619102431
 30
0.0
  0
VERTEX
  5
154F
330
153D
100
AcDbEntity
  8
CAGE COMMANDE
100
AcDbVertex
100
AcDb2dVertex
 10
-59.86388952819334
 20
-7.972779056386656
 30
0.0
  0
VERTEX
  5
1550
330
153D
100
AcDbEntity
  8
CAGE COMMANDE
100
AcDbVertex
100
AcDb2dVertex
 10
-60.02401754890678
 20
-8.055630034522437
 30
0.0
  0
VERTEX
  5
1551
330
153D
100
AcDbEntity
  8
CAGE COMMANDE
100
AcDbVertex
100
AcDb2dVertex
 10
-60.13674482163406
 20
-8.134066455696199
 30
0.0
  0
VERTEX
  5
1552
330
153D
100
AcDbEntity
  8
CAGE COMMANDE
100
AcDbVertex
100
AcDb2dVertex
 10
-60.23065448791715
 20
-8.220440161104704
 30
0.0
  0
VERTEX
  5
1553
330
153D
100
AcDbEntity
  8
CAGE COMMANDE
100
AcDbVertex
100
AcDb2dVertex
 10
-60.34075086306097
 20
-8.380434407364759
 30
0.0
  0
VERTEX
  5
1554
330
153D
100
AcDbEntity
  8
CAGE COMMANDE
100
AcDbVertex
100
AcDb2dVertex
 10
-60.3689772727273
 20
-8.535077675489048
 30
0.0
  0
VERTEX
  5
1555
330
153D
100
AcDbEntity
  8
CAGE COMMANDE
100
AcDbVertex
100
AcDb2dVertex
 10
-60.37165276179519
 20
-8.553850690448797
 30
0.0
  0
SEQEND
  5
1556
330
153D
100
AcDbEntity
  8
CAGE COMMANDE
  0
POLYLINE
  5
1557
330
14F3
100
AcDbEntity
  8
CAGE COMMANDE
100
AcDb2dPolyline
 66
     1
 10
0.0
 20
0.0
 30
0.0
  0
VERTEX
  5
1558
330
1557
100
AcDbEntity
  8
CAGE COMMANDE
100
AcDbVertex
100
AcDb2dVertex
 10
-56.60487629459146
 20
-14.21201956271576
 30
0.0
  0
VERTEX
  5
1559
330
1557
100
AcDbEntity
  8
CAGE COMMANDE
100
AcDbVertex
100
AcDb2dVertex
 10
-56.83679660529344
 20
-13.85970224395856
 30
0.0
  0
VERTEX
  5
155A
330
1557
100
AcDbEntity
  8
CAGE COMMANDE
100
AcDbVertex
100
AcDb2dVertex
 10
-57.13087744533948
 20
-13.39287399309552
 30
0.0
  0
VERTEX
  5
155B
330
1557
100
AcDbEntity
  8
CAGE COMMANDE
100
AcDbVertex
100
AcDb2dVertex
 10
-57.37871691599543
 20
-12.98593210586881
 30
0.0
  0
VERTEX
  5
155C
330
1557
100
AcDbEntity
  8
CAGE COMMANDE
100
AcDbVertex
100
AcDb2dVertex
 10
-57.70650891829696
 20
-12.42769131185269
 30
0.0
  0
VERTEX
  5
155D
330
1557
100
AcDbEntity
  8
CAGE COMMANDE
100
AcDbVertex
100
AcDb2dVertex
 10
-58.0623935558113
 20
-11.79462600690448
 30
0.0
  0
VERTEX
  5
155E
330
1557
100
AcDbEntity
  8
CAGE COMMANDE
100
AcDbVertex
100
AcDb2dVertex
 10
-58.3237442462601
 20
-11.30764240506329
 30
0.0
  0
VERTEX
  5
155F
330
1557
100
AcDbEntity
  8
CAGE COMMANDE
100
AcDbVertex
100
AcDb2dVertex
 10
-58.69050920598391
 20
-10.59279631760642
 30
0.0
  0
VERTEX
  5
1560
330
1557
100
AcDbEntity
  8
CAGE COMMANDE
100
AcDbVertex
100
AcDb2dVertex
 10
-59.04461018411969
 20
-9.860693325661685
 30
0.0
  0
VERTEX
  5
1561
330
1557
100
AcDbEntity
  8
CAGE COMMANDE
100
AcDbVertex
100
AcDb2dVertex
 10
-59.28384349827388
 20
-9.339953970080557
 30
0.0
  0
VERTEX
  5
1562
330
1557
100
AcDbEntity
  8
CAGE COMMANDE
100
AcDbVertex
100
AcDb2dVertex
 10
-59.67379602991947
 20
-8.439205983889536
 30
0.0
  0
VERTEX
  5
1563
330
1557
100
AcDbEntity
  8
CAGE COMMANDE
100
AcDbVertex
100
AcDb2dVertex
 10
-59.88217203682399
 20
-7.949234752589177
 30
0.0
  0
VERTEX
  5
1564
330
1557
100
AcDbEntity
  8
CAGE COMMANDE
100
AcDbVertex
100
AcDb2dVertex
 10
-60.14374568469503
 20
-7.526864211737631
 30
0.0
  0
VERTEX
  5
1565
330
1557
100
AcDbEntity
  8
CAGE COMMANDE
100
AcDbVertex
100
AcDb2dVertex
 10
-60.19886075949369
 20
-7.400046029919451
 30
0.0
  0
VERTEX
  5
1566
330
1557
100
AcDbEntity
  8
CAGE COMMANDE
100
AcDbVertex
100
AcDb2dVertex
 10
-60.27542433831991
 20
-7.136198216340631
 30
0.0
  0
VERTEX
  5
1567
330
1557
100
AcDbEntity
  8
CAGE COMMANDE
100
AcDbVertex
100
AcDb2dVertex
 10
-60.30842203682391
 20
-6.900086306098955
 30
0.0
  0
VERTEX
  5
1568
330
1557
100
AcDbEntity
  8
CAGE COMMANDE
100
AcDbVertex
100
AcDb2dVertex
 10
-60.72798331415419
 20
-4.839781357882628
 30
0.0
  0
VERTEX
  5
1569
330
1557
100
AcDbEntity
  8
CAGE COMMANDE
100
AcDbVertex
100
AcDb2dVertex
 10
-60.94362773302646
 20
-3.287819332566186
 30
0.0
  0
VERTEX
  5
156A
330
1557
100
AcDbEntity
  8
CAGE COMMANDE
100
AcDbVertex
100
AcDb2dVertex
 10
-61.03227560414274
 20
-2.366157940161116
 30
0.0
  0
VERTEX
  5
156B
330
1557
100
AcDbEntity
  8
CAGE COMMANDE
100
AcDbVertex
100
AcDb2dVertex
 10
-61.08578538550057
 20
-1.568817606444184
 30
0.0
  0
VERTEX
  5
156C
330
1557
100
AcDbEntity
  8
CAGE COMMANDE
100
AcDbVertex
100
AcDb2dVertex
 10
-61.11775747986197
 20
-0.747353279631767
 30
0.0
  0
VERTEX
  5
156D
330
1557
100
AcDbEntity
  8
CAGE COMMANDE
100
AcDbVertex
100
AcDb2dVertex
 10
-61.12736444865635
 20
0.0
 30
0.0
  0
VERTEX
  5
156E
330
1557
100
AcDbEntity
  8
CAGE COMMANDE
100
AcDbVertex
100
AcDb2dVertex
 10
-61.1086162255466
 20
1.061723245109334
 30
0.0
  0
VERTEX
  5
156F
330
1557
100
AcDbEntity
  8
CAGE COMMANDE
100
AcDbVertex
100
AcDb2dVertex
 10
-61.06754746835446
 20
1.877033947065598
 30
0.0
  0
VERTEX
  5
1570
330
1557
100
AcDbEntity
  8
CAGE COMMANDE
100
AcDbVertex
100
AcDb2dVertex
 10
-61.00712600690451
 20
2.665678941311853
 30
0.0
  0
VERTEX
  5
1571
330
1557
100
AcDbEntity
  8
CAGE COMMANDE
100
AcDbVertex
100
AcDb2dVertex
 10
-60.87370828538553
 20
3.862603567318757
 30
0.0
  0
VERTEX
  5
1572
330
1557
100
AcDbEntity
  8
CAGE COMMANDE
100
AcDbVertex
100
AcDb2dVertex
 10
-60.72994533947071
 20
4.826939010356738
 30
0.0
  0
VERTEX
  5
1573
330
1557
100
AcDbEntity
  8
CAGE COMMANDE
100
AcDbVertex
100
AcDb2dVertex
 10
-60.55140103567322
 20
5.800772439585728
 30
0.0
  0
VERTEX
  5
1574
330
1557
100
AcDbEntity
  8
CAGE COMMANDE
100
AcDbVertex
100
AcDb2dVertex
 10
-60.37321346375148
 20
6.625179804372834
 30
0.0
  0
VERTEX
  5
1575
330
1557
100
AcDbEntity
  8
CAGE COMMANDE
100
AcDbVertex
100
AcDb2dVertex
 10
-60.21660817031073
 20
7.26943757192177
 30
0.0
  0
VERTEX
  5
1576
330
1557
100
AcDbEntity
  8
CAGE COMMANDE
100
AcDbVertex
100
AcDb2dVertex
 10
-60.08515247410821
 20
7.76596375143842
 30
0.0
  0
VERTEX
  5
1577
330
1557
100
AcDbEntity
  8
CAGE COMMANDE
100
AcDbVertex
100
AcDb2dVertex
 10
-60.02178797468355
 20
7.992934407364799
 30
0.0
  0
SEQEND
  5
1578
330
1557
100
AcDbEntity
  8
CAGE COMMANDE
  0
POLYLINE
  5
1579
330
14F3
100
AcDbEntity
  8
CAGE COMMANDE
100
AcDb2dPolyline
 66
     1
 10
0.0
 20
0.0
 30
0.0
  0
VERTEX
  5
157A
330
1579
100
AcDbEntity
  8
CAGE COMMANDE
100
AcDbVertex
100
AcDb2dVertex
 10
-61.03067031070196
 20
-8.689720943613338
 30
0.0
  0
VERTEX
  5
157B
330
1579
100
AcDbEntity
  8
CAGE COMMANDE
100
AcDbVertex
100
AcDb2dVertex
 10
-58.51035960874566
 20
-13.01509493670883
 30
0.0
  0
SEQEND
  5
157C
330
1579
100
AcDbEntity
  8
CAGE COMMANDE
  0
POLYLINE
  5
157D
330
14F3
100
AcDbEntity
  8
CAGE COMMANDE
100
AcDb2dPolyline
 66
     1
 10
0.0
 20
0.0
 30
0.0
  0
VERTEX
  5
157E
330
157D
100
AcDbEntity
  8
CAGE COMMANDE
100
AcDbVertex
100
AcDb2dVertex
 10
-58.30675489067897
 20
-12.88622554660529
 30
0.0
  0
VERTEX
  5
157F
330
157D
100
AcDbEntity
  8
CAGE COMMANDE
100
AcDbVertex
100
AcDb2dVertex
 10
-58.51035960874566
 20
-13.01509493670883
 30
0.0
  0
VERTEX
  5
1580
330
157D
100
AcDbEntity
  8
CAGE COMMANDE
100
AcDbVertex
100
AcDb2dVertex
 10
-59.19466052934405
 20
-12.83458860759492
 30
0.0
  0
VERTEX
  5
1581
330
157D
100
AcDbEntity
  8
CAGE COMMANDE
100
AcDbVertex
100
AcDb2dVertex
 10
-61.2111766398159
 20
-9.374021864211727
 30
0.0
  0
VERTEX
  5
1582
330
157D
100
AcDbEntity
  8
CAGE COMMANDE
100
AcDbVertex
100
AcDb2dVertex
 10
-61.03067031070196
 20
-8.689720943613338
 30
0.0
  0
VERTEX
  5
1583
330
157D
100
AcDbEntity
  8
CAGE COMMANDE
100
AcDbVertex
100
AcDb2dVertex
 10
-60.44919735327965
 20
-8.337537399309553
 30
0.0
  0
SEQEND
  5
1584
330
157D
100
AcDbEntity
  8
CAGE COMMANDE
  0
POLYLINE
  5
1585
330
14F3
100
AcDbEntity
  8
CAGE COMMANDE
100
AcDb2dPolyline
 66
     1
 10
0.0
 20
0.0
 30
0.0
  0
VERTEX
  5
1586
330
1585
100
AcDbEntity
  8
CAGE COMMANDE
100
AcDbVertex
100
AcDb2dVertex
 10
-49.36277330264676
 20
11.01373993095512
 30
0.0
  0
VERTEX
  5
1587
330
1585
100
AcDbEntity
  8
CAGE COMMANDE
100
AcDbVertex
100
AcDb2dVertex
 10
-49.31555092059841
 20
10.6633400460299
 30
0.0
  0
VERTEX
  5
1588
330
1585
100
AcDbEntity
  8
CAGE COMMANDE
100
AcDbVertex
100
AcDb2dVertex
 10
-49.28839470655924
 20
10.15704833141544
 30
0.0
  0
VERTEX
  5
1589
330
1585
100
AcDbEntity
  8
CAGE COMMANDE
100
AcDbVertex
100
AcDb2dVertex
 10
-49.23952243958575
 20
8.460074798619103
 30
0.0
  0
VERTEX
  5
158A
330
1585
100
AcDbEntity
  8
CAGE COMMANDE
100
AcDbVertex
100
AcDb2dVertex
 10
-49.20723820483317
 20
6.460681818181825
 30
0.0
  0
VERTEX
  5
158B
330
1585
100
AcDbEntity
  8
CAGE COMMANDE
100
AcDbVertex
100
AcDb2dVertex
 10
-49.17780782508635
 20
3.04657940161104
 30
0.0
  0
VERTEX
  5
158C
330
1585
100
AcDbEntity
  8
CAGE COMMANDE
100
AcDbVertex
100
AcDb2dVertex
 10
-48.16094361334872
 20
3.04657940161104
 30
0.0
  0
SEQEND
  5
158D
330
1585
100
AcDbEntity
  8
CAGE COMMANDE
  0
POLYLINE
  5
158E
330
14F3
100
AcDbEntity
  8
CAGE COMMANDE
100
AcDb2dPolyline
 66
     1
 10
0.0
 20
0.0
 30
0.0
  0
VERTEX
  5
158F
330
158E
100
AcDbEntity
  8
CAGE COMMANDE
100
AcDbVertex
100
AcDb2dVertex
 10
-49.36277330264676
 20
8.760978135788263
 30
0.0
  0
VERTEX
  5
1590
330
158E
100
AcDbEntity
  8
CAGE COMMANDE
100
AcDbVertex
100
AcDb2dVertex
 10
-49.30453682393556
 20
8.095673187571918
 30
0.0
  0
VERTEX
  5
1591
330
158E
100
AcDbEntity
  8
CAGE COMMANDE
100
AcDbVertex
100
AcDb2dVertex
 10
-49.27822784810128
 20
7.291242807825113
 30
0.0
  0
VERTEX
  5
1592
330
158E
100
AcDbEntity
  8
CAGE COMMANDE
100
AcDbVertex
100
AcDb2dVertex
 10
-49.23604430379748
 20
4.89168584579977
 30
0.0
  0
VERTEX
  5
1593
330
158E
100
AcDbEntity
  8
CAGE COMMANDE
100
AcDbVertex
100
AcDb2dVertex
 10
-49.21923331415422
 20
2.985355293440733
 30
0.0
  0
VERTEX
  5
1594
330
158E
100
AcDbEntity
  8
CAGE COMMANDE
100
AcDbVertex
100
AcDb2dVertex
 10
-49.19408371691599
 20
2.276439873417729
 30
0.0
  0
VERTEX
  5
1595
330
158E
100
AcDbEntity
  8
CAGE COMMANDE
100
AcDbVertex
100
AcDb2dVertex
 10
-49.20358170310703
 20
1.400217203682387
 30
0.0
  0
VERTEX
  5
1596
330
158E
100
AcDbEntity
  8
CAGE COMMANDE
100
AcDbVertex
100
AcDb2dVertex
 10
-49.19533227848103
 20
-2.189040563866512
 30
0.0
  0
VERTEX
  5
1597
330
158E
100
AcDbEntity
  8
CAGE COMMANDE
100
AcDbVertex
100
AcDb2dVertex
 10
-49.2185198504028
 20
-2.882616513233614
 30
0.0
  0
VERTEX
  5
1598
330
158E
100
AcDbEntity
  8
CAGE COMMANDE
100
AcDbVertex
100
AcDb2dVertex
 10
-49.28063578826237
 20
-7.170132336018411
 30
0.0
  0
VERTEX
  5
1599
330
158E
100
AcDbEntity
  8
CAGE COMMANDE
100
AcDbVertex
100
AcDb2dVertex
 10
-49.28219649021866
 20
-8.078460874568463
 30
0.0
  0
VERTEX
  5
159A
330
158E
100
AcDbEntity
  8
CAGE COMMANDE
100
AcDbVertex
100
AcDb2dVertex
 10
-49.30645425776754
 20
-9.972885500575358
 30
0.0
  0
VERTEX
  5
159B
330
158E
100
AcDbEntity
  8
CAGE COMMANDE
100
AcDbVertex
100
AcDb2dVertex
 10
-49.36455696202528
 20
-11.25667433831989
 30
0.0
  0
VERTEX
  5
159C
330
158E
100
AcDbEntity
  8
CAGE COMMANDE
100
AcDbVertex
100
AcDb2dVertex
 10
-49.36277330264676
 20
-13.70800201380896
 30
0.0
  0
VERTEX
  5
159D
330
158E
100
AcDbEntity
  8
CAGE COMMANDE
100
AcDbVertex
100
AcDb2dVertex
 10
-49.36018699654778
 20
-16.09418153049483
 30
0.0
  0
VERTEX
  5
159E
330
158E
100
AcDbEntity
  8
CAGE COMMANDE
100
AcDbVertex
100
AcDb2dVertex
 10
-46.16030207134639
 20
-16.10136075949367
 30
0.0
  0
VERTEX
  5
159F
330
158E
100
AcDbEntity
  8
CAGE COMMANDE
100
AcDbVertex
100
AcDb2dVertex
 10
-46.15851841196774
 20
-12.05829545454546
 30
0.0
  0
VERTEX
  5
15A0
330
158E
100
AcDbEntity
  8
CAGE COMMANDE
100
AcDbVertex
100
AcDb2dVertex
 10
-46.15851841196774
 20
-8.010325086306096
 30
0.0
  0
SEQEND
  5
15A1
330
158E
100
AcDbEntity
  8
CAGE COMMANDE
  0
POLYLINE
  5
15A2
330
14F3
100
AcDbEntity
  8
CAGE COMMANDE
100
AcDb2dPolyline
 66
     1
 10
0.0
 20
0.0
 30
0.0
  0
VERTEX
  5
15A3
330
15A2
100
AcDbEntity
  8
CAGE COMMANDE
100
AcDbVertex
100
AcDb2dVertex
 10
-51.06465189873421
 20
8.010681818181808
 30
0.0
  0
VERTEX
  5
15A4
330
15A2
100
AcDbEntity
  8
CAGE COMMANDE
100
AcDbVertex
100
AcDb2dVertex
 10
-50.11387226697355
 20
8.009968354430384
 30
0.0
  0
VERTEX
  5
15A5
330
15A2
100
AcDbEntity
  8
CAGE COMMANDE
100
AcDbVertex
100
AcDb2dVertex
 10
-49.9092865362486
 20
8.039086593785953
 30
0.0
  0
VERTEX
  5
15A6
330
15A2
100
AcDbEntity
  8
CAGE COMMANDE
100
AcDbVertex
100
AcDb2dVertex
 10
-49.77256904487916
 20
8.092105868814741
 30
0.0
  0
VERTEX
  5
15A7
330
15A2
100
AcDbEntity
  8
CAGE COMMANDE
100
AcDbVertex
100
AcDb2dVertex
 10
-49.58260932105872
 20
8.230071921749129
 30
0.0
  0
VERTEX
  5
15A8
330
15A2
100
AcDbEntity
  8
CAGE COMMANDE
100
AcDbVertex
100
AcDb2dVertex
 10
-49.43215765247415
 20
8.446741944764113
 30
0.0
  0
VERTEX
  5
15A9
330
15A2
100
AcDbEntity
  8
CAGE COMMANDE
100
AcDbVertex
100
AcDb2dVertex
 10
-49.36843642117378
 20
8.672865362485623
 30
0.0
  0
VERTEX
  5
15AA
330
15A2
100
AcDbEntity
  8
CAGE COMMANDE
100
AcDbVertex
100
AcDb2dVertex
 10
-49.36277330264676
 20
8.760978135788263
 30
0.0
  0
VERTEX
  5
15AB
330
15A2
100
AcDbEntity
  8
CAGE COMMANDE
100
AcDbVertex
100
AcDb2dVertex
 10
-49.35314154200233
 20
10.9867174913694
 30
0.0
  0
VERTEX
  5
15AC
330
15A2
100
AcDbEntity
  8
CAGE COMMANDE
100
AcDbVertex
100
AcDb2dVertex
 10
-48.16094361334872
 20
11.01373993095512
 30
0.0
  0
VERTEX
  5
15AD
330
15A2
100
AcDbEntity
  8
CAGE COMMANDE
100
AcDbVertex
100
AcDb2dVertex
 10
-48.16094361334872
 20
-3.003771576524741
 30
0.0
  0
VERTEX
  5
15AE
330
15A2
100
AcDbEntity
  8
CAGE COMMANDE
100
AcDbVertex
100
AcDb2dVertex
 10
-46.34214614499422
 20
-3.003771576524741
 30
0.0
  0
VERTEX
  5
15AF
330
15A2
100
AcDbEntity
  8
CAGE COMMANDE
100
AcDbVertex
100
AcDb2dVertex
 10
-46.28810126582277
 20
-3.003771576524741
 30
0.0
  0
VERTEX
  5
15B0
330
15A2
100
AcDbEntity
  8
CAGE COMMANDE
100
AcDbVertex
100
AcDb2dVertex
 10
-46.28716451884429
 20
-3.123541368775221
 30
0.0
  0
VERTEX
  5
15B1
330
15A2
100
AcDbEntity
  8
CAGE COMMANDE
100
AcDbVertex
100
AcDb2dVertex
 10
-46.19258630609897
 20
-7.757357594936706
 30
0.0
  0
VERTEX
  5
15B2
330
15A2
100
AcDbEntity
  8
CAGE COMMANDE
100
AcDbVertex
100
AcDb2dVertex
 10
-46.18589758342929
 20
-7.854076524741088
 30
0.0
  0
VERTEX
  5
15B3
330
15A2
100
AcDbEntity
  8
CAGE COMMANDE
100
AcDbVertex
100
AcDb2dVertex
 10
-46.17225258918296
 20
-7.970995397008039
 30
0.0
  0
VERTEX
  5
15B4
330
15A2
100
AcDbEntity
  8
CAGE COMMANDE
100
AcDbVertex
100
AcDb2dVertex
 10
-45.85832853855009
 20
-8.010325086306096
 30
0.0
  0
VERTEX
  5
15B5
330
15A2
100
AcDbEntity
  8
CAGE COMMANDE
100
AcDbVertex
100
AcDb2dVertex
 10
-45.8081185270426
 20
-7.80912830840046
 30
0.0
  0
VERTEX
  5
15B6
330
15A2
100
AcDbEntity
  8
CAGE COMMANDE
100
AcDbVertex
100
AcDb2dVertex
 10
-45.75790851553512
 20
-7.304887802071334
 30
0.0
  0
VERTEX
  5
15B7
330
15A2
100
AcDbEntity
  8
CAGE COMMANDE
100
AcDbVertex
100
AcDb2dVertex
 10
-45.65784522439588
 20
-7.304887802071334
 30
0.0
  0
SEQEND
  5
15B8
330
15A2
100
AcDbEntity
  8
CAGE COMMANDE
  0
POLYLINE
  5
15B9
330
14F3
100
AcDbEntity
  8
CAGE COMMANDE
100
AcDb2dPolyline
 66
     1
 10
0.0
 20
0.0
 30
0.0
  0
VERTEX
  5
15BA
330
15B9
100
AcDbEntity
  8
CAGE COMMANDE
100
AcDbVertex
100
AcDb2dVertex
 10
-46.28810126582277
 20
-3.003771576524741
 30
0.0
  0
VERTEX
  5
15BB
330
15B9
100
AcDbEntity
  8
CAGE COMMANDE
100
AcDbVertex
100
AcDb2dVertex
 10
-46.34566887226703
 20
-3.118773014959714
 30
0.0
  0
VERTEX
  5
15BC
330
15B9
100
AcDbEntity
  8
CAGE COMMANDE
100
AcDbVertex
100
AcDb2dVertex
 10
-46.34705120828539
 20
-3.155115074798601
 30
0.0
  0
VERTEX
  5
15BD
330
15B9
100
AcDbEntity
  8
CAGE COMMANDE
100
AcDbVertex
100
AcDb2dVertex
 10
-49.17424050632911
 20
-3.155115074798601
 30
0.0
  0
VERTEX
  5
15BE
330
15B9
100
AcDbEntity
  8
CAGE COMMANDE
100
AcDbVertex
100
AcDb2dVertex
 10
-49.20866513233602
 20
-7.510722094361312
 30
0.0
  0
VERTEX
  5
15BF
330
15B9
100
AcDbEntity
  8
CAGE COMMANDE
100
AcDbVertex
100
AcDb2dVertex
 10
-49.22659090909093
 20
-8.732885500575378
 30
0.0
  0
VERTEX
  5
15C0
330
15B9
100
AcDbEntity
  8
CAGE COMMANDE
100
AcDbVertex
100
AcDb2dVertex
 10
-49.2883947065593
 20
-12.27300345224395
 30
0.0
  0
VERTEX
  5
15C1
330
15B9
100
AcDbEntity
  8
CAGE COMMANDE
100
AcDbVertex
100
AcDb2dVertex
 10
-49.35019850402762
 20
-15.81312140391253
 30
0.0
  0
VERTEX
  5
15C2
330
15B9
100
AcDbEntity
  8
CAGE COMMANDE
100
AcDbVertex
100
AcDb2dVertex
 10
-46.17082566168011
 20
-15.81312140391253
 30
0.0
  0
VERTEX
  5
15C3
330
15B9
100
AcDbEntity
  8
CAGE COMMANDE
100
AcDbVertex
100
AcDb2dVertex
 10
-46.23262945914848
 20
-12.27300345224395
 30
0.0
  0
VERTEX
  5
15C4
330
15B9
100
AcDbEntity
  8
CAGE COMMANDE
100
AcDbVertex
100
AcDb2dVertex
 10
-46.2944332566168
 20
-8.732885500575378
 30
0.0
  0
VERTEX
  5
15C5
330
15B9
100
AcDbEntity
  8
CAGE COMMANDE
100
AcDbVertex
100
AcDb2dVertex
 10
-46.33180092059842
 20
-5.681356444188736
 30
0.0
  0
VERTEX
  5
15C6
330
15B9
100
AcDbEntity
  8
CAGE COMMANDE
100
AcDbVertex
100
AcDb2dVertex
 10
-46.34705120828539
 20
-3.155115074798601
 30
0.0
  0
SEQEND
  5
15C7
330
15B9
100
AcDbEntity
  8
CAGE COMMANDE
  0
POLYLINE
  5
15C8
330
14F3
100
AcDbEntity
  8
CAGE COMMANDE
100
AcDb2dPolyline
 66
     1
 10
0.0
 20
0.0
 30
0.0
  0
VERTEX
  5
15C9
330
15C8
100
AcDbEntity
  8
CAGE COMMANDE
100
AcDbVertex
100
AcDb2dVertex
 10
-46.2944332566168
 20
-8.732885500575378
 30
0.0
  0
VERTEX
  5
15CA
330
15C8
100
AcDbEntity
  8
CAGE COMMANDE
100
AcDbVertex
100
AcDb2dVertex
 10
-49.22659090909093
 20
-8.732885500575378
 30
0.0
  0
SEQEND
  5
15CB
330
15C8
100
AcDbEntity
  8
CAGE COMMANDE
  0
POLYLINE
  5
15CC
330
14F3
100
AcDbEntity
  8
CAGE COMMANDE
100
AcDb2dPolyline
 66
     1
 10
0.0
 20
0.0
 30
0.0
  0
VERTEX
  5
15CD
330
15CC
100
AcDbEntity
  8
CAGE COMMANDE
100
AcDbVertex
100
AcDb2dVertex
 10
-50.49165132336082
 20
-10.66084292290025
 30
0.0
  0
VERTEX
  5
15CE
330
15CC
100
AcDbEntity
  8
CAGE COMMANDE
100
AcDbVertex
100
AcDb2dVertex
 10
-50.32345224395857
 20
-10.58909522439586
 30
0.0
  0
VERTEX
  5
15CF
330
15CC
100
AcDbEntity
  8
CAGE COMMANDE
100
AcDbVertex
100
AcDb2dVertex
 10
-50.22111478711167
 20
-10.56697784810126
 30
0.0
  0
VERTEX
  5
15D0
330
15CC
100
AcDbEntity
  8
CAGE COMMANDE
100
AcDbVertex
100
AcDb2dVertex
 10
-50.06379602991946
 20
-10.5608242232451
 30
0.0
  0
VERTEX
  5
15D1
330
15CC
100
AcDbEntity
  8
CAGE COMMANDE
100
AcDbVertex
100
AcDb2dVertex
 10
-49.88351265822785
 20
-10.59484752589182
 30
0.0
  0
VERTEX
  5
15D2
330
15CC
100
AcDbEntity
  8
CAGE COMMANDE
100
AcDbVertex
100
AcDb2dVertex
 10
-49.81011507479866
 20
-10.62311852704255
 30
0.0
  0
VERTEX
  5
15D3
330
15CC
100
AcDbEntity
  8
CAGE COMMANDE
100
AcDbVertex
100
AcDb2dVertex
 10
-49.61212888377446
 20
-10.7503826237054
 30
0.0
  0
VERTEX
  5
15D4
330
15CC
100
AcDbEntity
  8
CAGE COMMANDE
100
AcDbVertex
100
AcDb2dVertex
 10
-49.50644706559264
 20
-10.86730149597235
 30
0.0
  0
VERTEX
  5
15D5
330
15CC
100
AcDbEntity
  8
CAGE COMMANDE
100
AcDbVertex
100
AcDb2dVertex
 10
-49.40807825086307
 20
-11.05199942462599
 30
0.0
  0
VERTEX
  5
15D6
330
15CC
100
AcDbEntity
  8
CAGE COMMANDE
100
AcDbVertex
100
AcDb2dVertex
 10
-49.36366513233605
 20
-11.28320627157649
 30
0.0
  0
SEQEND
  5
15D7
330
15CC
100
AcDbEntity
  8
CAGE COMMANDE
  0
LINE
  5
15D8
330
14F3
100
AcDbEntity
  8
AXIS
100
AcDbLine
 10
0.0
 20
-5.185830171596649
 30
0.0
 11
0.0
 21
5.185830171596649
 31
0.0
1001
GENIUS_GENODEF_13
1002
{
1000
HIER
1070
     0
1002
}
1002
{
1000
MANEDIT
1070
     0
1002
}
1002
{
1000
NOSEL
1070
     0
1002
}
1002
{
1000
BEHIND
1070
     0
1002
}
1002
{
1000
REACTOR
1002
}
1001
GENIUS_GENOBJ-N-CEN_13
1002
{
1000
OWNER
1000
GEN
1002
}
  0
POINT
  5
15D9
330
14F3
100
AcDbEntity
  8
POINT D'ACCROCHAGE
100
AcDbPoint
 10
0.0
 20
0.0
 30
0.0
  0
ENDBLK
  5
15DB
330
14F3
100
AcDbEntity
  8
0
100
AcDbBlockEnd
  0
BLOCK
  5
1634
330
15DC
100
AcDbEntity
  8
0
100
AcDbBlockBegin
  2
528009 cage commande right
 70
     0
 10
0.0
 20
0.0
 30
0.0
  3
528009 cage commande right
  1

  0
LWPOLYLINE
  5
15DD
330
15DC
100
AcDbEntity
  8
CAGE COMMANDE
100
AcDbPolyline
 90
       18
 70
     1
 43
0.0
 10
-0.7499999999999716
 20
40.49999999999994
 10
-5.849999999999965
 20
40.49999999999992
 42
-0.4142135623730947
 10
-6.599999999999965
 20
41.24999999999992
 10
-6.599999999999965
 20
45.26537222928841
 42
-0.2157780089762479
 10
-6.171504260949319
 20
46.21205098368348
 42
0.0973079548078192
 10
-5.936295991560086
 20
46.51758271097636
 42
0.2352345642331744
 10
-5.936295991560058
 20
71.48241728902341
 42
0.0973079548078305
 10
-6.171504260949319
 20
71.78794901631633
 42
-0.215778008976257
 10
-6.599999999999994
 20
72.73462777071145
 10
-6.599999999999994
 20
76.74999999999993
 42
-0.4142135623730966
 10
-5.849999999999994
 20
77.49999999999992
 10
-0.75
 20
77.4999999999999
 42
0.4142135623730964
 10
0.0
 20
78.2499999999999
 10
0.0
 20
117.9999999999999
 10
-76.59999999999996
 20
117.9999999999999
 10
-76.6
 20
0.0
 10
0.0
 20
0.0
 10
0.0000000000000284
 20
39.74999999999994
 42
0.4142135623730956
  0
CIRCLE
  5
15DE
330
15DC
100
AcDbEntity
  8
CAGE COMMANDE
100
AcDbCircle
 10
-42.49999999999999
 20
113.1999999999999
 30
0.0
 40
1.649999999999999
  0
LWPOLYLINE
  5
15DF
330
15DC
100
AcDbEntity
  8
CAGE COMMANDE
100
AcDbPolyline
 90
        4
 70
     0
 43
0.0
 10
-76.59999999999998
 20
117.9999999999999
 10
-84.39999999999999
 20
117.9999999999999
 10
-84.39999999999999
 20
104.8749999999999
 10
-76.59999999999998
 20
104.8749999999999
  0
LWPOLYLINE
  5
15E0
330
15DC
100
AcDbEntity
  8
CAGE COMMANDE
100
AcDbPolyline
 90
        6
 70
     1
 43
0.0
 10
-60.96870254285509
 20
62.49999999999992
 10
-68.79999999999995
 20
62.49999999999992
 42
0.4142135623730951
 10
-72.29999999999995
 20
58.99999999999991
 10
-72.29999999999998
 20
58.99999999999991
 42
0.4142135623730951
 10
-68.79999999999999
 20
55.49999999999991
 10
-60.96870254285509
 20
55.49999999999991
 42
0.9999999999999998
1001
GENIUS_GENREC_14
1002
{
1000
PYDIR
1011
-72.29999999999995
1021
62.49999999999992
1031
0.0
1002
}
1002
{
1000
PXDIR
1011
-57.99999999999997
1021
55.49999999999993
1031
0.0
1002
}
1002
{
1000
PORI
1011
-72.29999999999995
1021
55.49999999999993
1031
0.0
1002
}
1002
{
1000
PINS
1011
-72.29999999999995
1021
58.99999999999993
1031
0.0
1002
}
1002
{
1000
HVAL
1000
7
1002
}
1002
{
1000
H
1070
     2
1002
}
1002
{
1000
WVAL
1000
14.3
1002
}
1002
{
1000
W
1070
     2
1002
}
1002
{
1000
C
1070
     3
1002
}
1001
GENIUS_GENODEF_13
1002
{
1000
HIER
1070
     0
1002
}
1002
{
1000
MANEDIT
1070
     0
1002
}
1002
{
1000
NOSEL
1070
     0
1002
}
1002
{
1000
BEHIND
1070
     0
1002
}
1002
{
1000
REACTOR
1002
}
1001
GENIUS_GENOBJ-N-REC_13
1002
{
1000
OWNER
1000
GEN
1002
}
  0
CIRCLE
  5
15E1
330
15DC
100
AcDbEntity
  8
CAGE COMMANDE
100
AcDbCircle
 10
-66.0
 20
43.99999999999993
 30
0.0
 40
3.649999999999999
  0
CIRCLE
  5
15E2
330
15DC
100
AcDbEntity
  8
CAGE COMMANDE
100
AcDbCircle
 10
-66.0
 20
73.99999999999993
 30
0.0
 40
3.649999999999999
  0
CIRCLE
  5
15E3
330
15DC
100
AcDbEntity
  8
CAGE COMMANDE
100
AcDbCircle
 10
-72.29999999999996
 20
29.39999999999992
 30
0.0
 40
3.25
  0
LWPOLYLINE
  5
15E4
330
15DC
100
AcDbEntity
  8
CAGE COMMANDE
100
AcDbPolyline
 90
        3
 70
     0
 43
0.0
 10
-76.59999999999996
 20
77.49999999999997
 10
-81.89999999999997
 20
77.49999999999997
 10
-81.89999999999997
 20
82.52499999999995
  0
LWPOLYLINE
  5
15E5
330
15DC
100
AcDbEntity
  8
CAGE COMMANDE
100
AcDbPolyline
 90
        5
 70
     0
 43
0.0
 10
-76.59999999999996
 20
74.99999999999997
 10
-78.79999999999999
 20
74.99999999999997
 10
-84.39999999999997
 20
74.99999999999997
 10
-84.39999999999997
 20
91.52499999999994
 10
-76.59999999999996
 20
91.52499999999994
  0
LINE
  5
15E6
330
15DC
100
AcDbEntity
  8
CAGE COMMANDE
100
AcDbLine
 10
-78.79999999999999
 20
74.99999999999997
 30
0.0
 11
-78.79999999999999
 21
67.00996835443032
 31
0.0
  0
LWPOLYLINE
  5
15E7
330
15DC
100
AcDbEntity
  8
CAGE COMMANDE
100
AcDbPolyline
 90
        4
 70
     0
 43
0.0
 10
-84.39999999999999
 20
113.6999999999998
 10
-83.39999999999999
 20
113.6999999999998
 10
-83.39999999999999
 20
111.3749999999999
 10
-76.59999999999998
 20
111.3749999999999
  0
LWPOLYLINE
  5
15E8
330
15DC
100
AcDbEntity
  8
CAGE COMMANDE
100
AcDbPolyline
 90
        4
 70
     0
 43
0.0
 10
-84.39999999999999
 20
78.32499999999995
 10
-83.39999999999999
 20
78.32499999999995
 10
-83.39999999999999
 20
82.52499999999995
 10
-76.59999999999998
 20
82.52499999999995
  0
CIRCLE
  5
15E9
330
15DC
100
AcDbEntity
  8
CAGE COMMANDE
100
AcDbCircle
 10
-72.29999999999996
 20
88.39999999999992
 30
0.0
 40
3.25
  0
LWPOLYLINE
  5
15EA
330
15DC
100
AcDbEntity
  8
CAGE COMMANDE
100
AcDbPolyline
 90
        6
 70
     1
 43
0.0
 10
-46.69393102292056
 20
26.04999999999993
 10
-48.88786204584114
 20
22.24999999999993
 10
-46.69393102292056
 20
18.44999999999993
 10
-42.30606897707941
 20
18.44999999999993
 10
-40.11213795415883
 20
22.24999999999992
 10
-42.3060689770794
 20
26.04999999999993
  0
CIRCLE
  5
15EB
330
15DC
100
AcDbEntity
  8
CAGE COMMANDE
100
AcDbCircle
 10
-42.49999999999999
 20
4.799999999999926
 30
0.0
 40
1.649999999999999
  0
LWPOLYLINE
  5
15EC
330
15DC
100
AcDbEntity
  8
CAGE COMMANDE
100
AcDbPolyline
 90
        6
 70
     1
 43
0.0
 10
-46.69393102292056
 20
99.54999999999992
 10
-48.88786204584114
 20
95.74999999999993
 10
-46.69393102292056
 20
91.94999999999993
 10
-42.30606897707941
 20
91.94999999999993
 10
-40.11213795415883
 20
95.74999999999992
 10
-42.3060689770794
 20
99.54999999999992
  0
CIRCLE
  5
15ED
330
15DC
100
AcDbEntity
  8
CAGE COMMANDE
100
AcDbCircle
 10
-3.499999999999985
 20
113.1999999999999
 30
0.0
 40
1.649999999999999
  0
CIRCLE
  5
15EE
330
15DC
100
AcDbEntity
  8
CAGE COMMANDE
100
AcDbCircle
 10
-3.499999999999985
 20
4.799999999999926
 30
0.0
 40
1.649999999999999
  0
LWPOLYLINE
  5
15EF
330
15DC
100
AcDbEntity
  8
CAGE COMMANDE
100
AcDbPolyline
 90
        4
 70
     1
 43
0.0
 10
-9.499999999999996
 20
53.99999999999993
 10
-6.499999999999996
 20
53.99999999999993
 10
-6.499999999999996
 20
63.99999999999993
 10
-9.499999999999996
 20
63.99999999999993
1001
GENIUS_GENREC_14
1002
{
1000
PYDIR
1011
-9.499999999999996
1021
63.99999999999993
1031
0.0
1002
}
1002
{
1000
PXDIR
1011
-6.499999999999996
1021
53.99999999999993
1031
0.0
1002
}
1002
{
1000
PORI
1011
-9.499999999999996
1021
53.99999999999993
1031
0.0
1002
}
1002
{
1000
PINS
1011
-7.999999999999996
1021
53.99999999999993
1031
0.0
1002
}
1002
{
1000
HVAL
1000
10
1002
}
1002
{
1000
H
1070
     2
1002
}
1002
{
1000
WVAL
1000
3
1002
}
1002
{
1000
W
1070
     2
1002
}
1002
{
1000
C
1070
     2
1002
}
1001
GENIUS_GENODEF_13
1002
{
1000
HIER
1070
     0
1002
}
1002
{
1000
MANEDIT
1070
     0
1002
}
1002
{
1000
NOSEL
1070
     0
1002
}
1002
{
1000
BEHIND
1070
     0
1002
}
1002
{
1000
REACTOR
1002
}
1001
GENIUS_GENOBJ-N-REC_13
1002
{
1000
OWNER
1000
GEN
1002
}
  0
POLYLINE
  5
15F0
330
15DC
100
AcDbEntity
  8
CAGE COMMANDE
100
AcDb2dPolyline
 66
     1
 10
0.0
 20
0.0
 30
0.0
  0
VERTEX
  5
15F1
330
15F0
100
AcDbEntity
  8
CAGE COMMANDE
100
AcDbVertex
100
AcDb2dVertex
 10
-68.73701505654714
 20
62.40429046292653
 30
0.0
  0
VERTEX
  5
15F2
330
15F0
100
AcDbEntity
  8
CAGE COMMANDE
100
AcDbVertex
100
AcDb2dVertex
 10
-68.73701505654714
 20
59.00859522828284
 30
0.0
  0
SEQEND
  5
15F3
330
15F0
100
AcDbEntity
  8
CAGE COMMANDE
  0
POLYLINE
  5
15F4
330
15DC
100
AcDbEntity
  8
CAGE COMMANDE
100
AcDb2dPolyline
 66
     1
 10
0.0
 20
0.0
 30
0.0
  0
VERTEX
  5
15F5
330
15F4
100
AcDbEntity
  8
CAGE COMMANDE
100
AcDbVertex
100
AcDb2dVertex
 10
-65.73705771150395
 20
62.50858999902812
 30
0.0
  0
VERTEX
  5
15F6
330
15F4
100
AcDbEntity
  8
CAGE COMMANDE
100
AcDbVertex
100
AcDb2dVertex
 10
-65.73705771150395
 20
59.00859522828284
 30
0.0
  0
SEQEND
  5
15F7
330
15F4
100
AcDbEntity
  8
CAGE COMMANDE
  0
LINE
  5
15F8
330
15DC
100
AcDbEntity
  8
CAGE COMMANDE
100
AcDbLine
 10
-68.73701505654714
 20
59.00859522828284
 30
0.0
 11
-65.73705771150395
 21
59.00859522828284
 31
0.0
  0
POLYLINE
  5
15F9
330
15DC
100
AcDbEntity
  8
CAGE COMMANDE
100
AcDb2dPolyline
 66
     1
 10
0.0
 20
0.0
 30
0.0
  0
VERTEX
  5
15FA
330
15F9
100
AcDbEntity
  8
CAGE COMMANDE
100
AcDbVertex
100
AcDb2dVertex
 10
-57.48234298015484
 20
61.48393190403756
 30
0.0
  0
VERTEX
  5
15FB
330
15F9
100
AcDbEntity
  8
CAGE COMMANDE
100
AcDbVertex
100
AcDb2dVertex
 10
-57.72238588401439
 20
61.55251559085455
 30
0.0
  0
VERTEX
  5
15FC
330
15F9
100
AcDbEntity
  8
CAGE COMMANDE
100
AcDbVertex
100
AcDb2dVertex
 10
-57.99061935524736
 20
61.59371033780636
 30
0.0
  0
VERTEX
  5
15FD
330
15F9
100
AcDbEntity
  8
CAGE COMMANDE
100
AcDbVertex
100
AcDb2dVertex
 10
-58.21280377961739
 20
61.58146325087473
 30
0.0
  0
VERTEX
  5
15FE
330
15F9
100
AcDbEntity
  8
CAGE COMMANDE
100
AcDbVertex
100
AcDb2dVertex
 10
-58.29644024964494
 20
61.53514699484247
 30
0.0
  0
VERTEX
  5
15FF
330
15F9
100
AcDbEntity
  8
CAGE COMMANDE
100
AcDbVertex
100
AcDb2dVertex
 10
-58.27399467941387
 20
61.32471977392668
 30
0.0
  0
VERTEX
  5
1600
330
15F9
100
AcDbEntity
  8
CAGE COMMANDE
100
AcDbVertex
100
AcDb2dVertex
 10
-58.10440592655737
 20
61.06494792639193
 30
0.0
  0
VERTEX
  5
1601
330
15F9
100
AcDbEntity
  8
CAGE COMMANDE
100
AcDbVertex
100
AcDb2dVertex
 10
-57.91682508962674
 20
60.77734179037623
 30
0.0
  0
VERTEX
  5
1602
330
15F9
100
AcDbEntity
  8
CAGE COMMANDE
100
AcDbVertex
100
AcDb2dVertex
 10
-57.71445867865503
 20
60.37412315372617
 30
0.0
  0
VERTEX
  5
1603
330
15F9
100
AcDbEntity
  8
CAGE COMMANDE
100
AcDbVertex
100
AcDb2dVertex
 10
-57.63273720767506
 20
60.1601776787464
 30
0.0
  0
VERTEX
  5
1604
330
15F9
100
AcDbEntity
  8
CAGE COMMANDE
100
AcDbVertex
100
AcDb2dVertex
 10
-57.52438388947644
 20
59.78599577183965
 30
0.0
  0
VERTEX
  5
1605
330
15F9
100
AcDbEntity
  8
CAGE COMMANDE
100
AcDbVertex
100
AcDb2dVertex
 10
-57.48073972513833
 20
59.55441449167835
 30
0.0
  0
VERTEX
  5
1606
330
15F9
100
AcDbEntity
  8
CAGE COMMANDE
100
AcDbVertex
100
AcDb2dVertex
 10
-57.44582439366792
 20
59.2419579029069
 30
0.0
  0
VERTEX
  5
1607
330
15F9
100
AcDbEntity
  8
CAGE COMMANDE
100
AcDbVertex
100
AcDb2dVertex
 10
-57.43718712827228
 20
59.00859522828284
 30
0.0
  0
VERTEX
  5
1608
330
15F9
100
AcDbEntity
  8
CAGE COMMANDE
100
AcDbVertex
100
AcDb2dVertex
 10
-57.46074357229372
 20
58.60831589249636
 30
0.0
  0
VERTEX
  5
1609
330
15F9
100
AcDbEntity
  8
CAGE COMMANDE
100
AcDbVertex
100
AcDb2dVertex
 10
-57.49463460194807
 20
58.37602205454999
 30
0.0
  0
VERTEX
  5
160A
330
15F9
100
AcDbEntity
  8
CAGE COMMANDE
100
AcDbVertex
100
AcDb2dVertex
 10
-57.56437619516589
 20
58.07336313532378
 30
0.0
  0
VERTEX
  5
160B
330
15F9
100
AcDbEntity
  8
CAGE COMMANDE
100
AcDbVertex
100
AcDb2dVertex
 10
-57.68853938922155
 20
57.70777645669996
 30
0.0
  0
VERTEX
  5
160C
330
15F9
100
AcDbEntity
  8
CAGE COMMANDE
100
AcDbVertex
100
AcDb2dVertex
 10
-57.81265804841575
 20
57.43286275623154
 30
0.0
  0
VERTEX
  5
160D
330
15F9
100
AcDbEntity
  8
CAGE COMMANDE
100
AcDbVertex
100
AcDb2dVertex
 10
-57.99431574875757
 20
57.1135477987784
 30
0.0
  0
VERTEX
  5
160E
330
15F9
100
AcDbEntity
  8
CAGE COMMANDE
100
AcDbVertex
100
AcDb2dVertex
 10
-58.10654359991264
 20
56.94912508986388
 30
0.0
  0
VERTEX
  5
160F
330
15F9
100
AcDbEntity
  8
CAGE COMMANDE
100
AcDbVertex
100
AcDb2dVertex
 10
-58.26361805666829
 20
56.71135346394445
 30
0.0
  0
VERTEX
  5
1610
330
15F9
100
AcDbEntity
  8
CAGE COMMANDE
100
AcDbVertex
100
AcDb2dVertex
 10
-58.32075628406193
 20
56.53076460028022
 30
0.0
  0
VERTEX
  5
1611
330
15F9
100
AcDbEntity
  8
CAGE COMMANDE
100
AcDbVertex
100
AcDb2dVertex
 10
-58.28601909203763
 20
56.47010811882259
 30
0.0
  0
VERTEX
  5
1612
330
15F9
100
AcDbEntity
  8
CAGE COMMANDE
100
AcDbVertex
100
AcDb2dVertex
 10
-58.2085284329068
 20
56.43465836901327
 30
0.0
  0
VERTEX
  5
1613
330
15F9
100
AcDbEntity
  8
CAGE COMMANDE
100
AcDbVertex
100
AcDb2dVertex
 10
-58.08106965909496
 20
56.42067442248046
 30
0.0
  0
VERTEX
  5
1614
330
15F9
100
AcDbEntity
  8
CAGE COMMANDE
100
AcDbVertex
100
AcDb2dVertex
 10
-57.99814574685263
 20
56.42245581694327
 30
0.0
  0
VERTEX
  5
1615
330
15F9
100
AcDbEntity
  8
CAGE COMMANDE
100
AcDbVertex
100
AcDb2dVertex
 10
-57.74060064239631
 20
56.4603104492773
 30
0.0
  0
VERTEX
  5
1616
330
15F9
100
AcDbEntity
  8
CAGE COMMANDE
100
AcDbVertex
100
AcDb2dVertex
 10
-57.48335502551947
 20
56.5329206753139
 30
0.0
  0
SEQEND
  5
1617
330
15F9
100
AcDbEntity
  8
CAGE COMMANDE
  0
ARC
  5
1618
330
15DC
100
AcDbEntity
  8
CAGE COMMANDE
100
AcDbCircle
 10
-61.00098083626107
 20
55.89996753016393
 30
0.0
 40
6.600111399901855
100
AcDbArc
 50
57.7836348073762
 51
89.71978997893616
  0
ARC
  5
1619
330
15DC
100
AcDbEntity
  8
CAGE COMMANDE
100
AcDbCircle
 10
-61.00944080385696
 20
62.09993283739386
 30
0.0
 40
6.600111399901855
100
AcDbArc
 50
270.4365722305939
 51
302.3727274021543
  0
POLYLINE
  5
161A
330
15DC
100
AcDbEntity
  8
CAGE COMMANDE
100
AcDb2dPolyline
 66
     1
 10
0.0
 20
0.0
 30
0.0
  0
VERTEX
  5
161B
330
161A
100
AcDbEntity
  8
CAGE COMMANDE
100
AcDbVertex
100
AcDb2dVertex
 10
-57.48234298015484
 20
61.48393190403756
 30
0.0
  0
VERTEX
  5
161C
330
161A
100
AcDbEntity
  8
CAGE COMMANDE
100
AcDbVertex
100
AcDb2dVertex
 10
-56.66793396663388
 20
61.15277067340693
 30
0.0
  0
VERTEX
  5
161D
330
161A
100
AcDbEntity
  8
CAGE COMMANDE
100
AcDbVertex
100
AcDb2dVertex
 10
-56.18927327448512
 20
60.90867509714462
 30
0.0
  0
VERTEX
  5
161E
330
161A
100
AcDbEntity
  8
CAGE COMMANDE
100
AcDbVertex
100
AcDb2dVertex
 10
-55.77037836656256
 20
60.6470773202855
 30
0.0
  0
VERTEX
  5
161F
330
161A
100
AcDbEntity
  8
CAGE COMMANDE
100
AcDbVertex
100
AcDb2dVertex
 10
-55.41512377582285
 20
60.37042676021591
 30
0.0
  0
VERTEX
  5
1620
330
161A
100
AcDbEntity
  8
CAGE COMMANDE
100
AcDbVertex
100
AcDb2dVertex
 10
-55.1268941517452
 20
60.0811282994606
 30
0.0
  0
VERTEX
  5
1621
330
161A
100
AcDbEntity
  8
CAGE COMMANDE
100
AcDbVertex
100
AcDb2dVertex
 10
-54.90845065574688
 20
59.7818094948521
 30
0.0
  0
VERTEX
  5
1622
330
161A
100
AcDbEntity
  8
CAGE COMMANDE
100
AcDbVertex
100
AcDb2dVertex
 10
-54.76170828687549
 20
59.47532057753097
 30
0.0
  0
VERTEX
  5
1623
330
161A
100
AcDbEntity
  8
CAGE COMMANDE
100
AcDbVertex
100
AcDb2dVertex
 10
-54.68804762583954
 20
59.1646453832223
 30
0.0
  0
VERTEX
  5
1624
330
161A
100
AcDbEntity
  8
CAGE COMMANDE
100
AcDbVertex
100
AcDb2dVertex
 10
-54.66961019314982
 20
59.00859522828284
 30
0.0
  0
VERTEX
  5
1625
330
161A
100
AcDbEntity
  8
CAGE COMMANDE
100
AcDbVertex
100
AcDb2dVertex
 10
-54.68804762583954
 20
58.85254507334341
 30
0.0
  0
VERTEX
  5
1626
330
161A
100
AcDbEntity
  8
CAGE COMMANDE
100
AcDbVertex
100
AcDb2dVertex
 10
-54.76170828687549
 20
58.54186987903474
 30
0.0
  0
VERTEX
  5
1627
330
161A
100
AcDbEntity
  8
CAGE COMMANDE
100
AcDbVertex
100
AcDb2dVertex
 10
-54.90845065574688
 20
58.23538096171358
 30
0.0
  0
VERTEX
  5
1628
330
161A
100
AcDbEntity
  8
CAGE COMMANDE
100
AcDbVertex
100
AcDb2dVertex
 10
-55.1268941517452
 20
57.93606215710511
 30
0.0
  0
VERTEX
  5
1629
330
161A
100
AcDbEntity
  8
CAGE COMMANDE
100
AcDbVertex
100
AcDb2dVertex
 10
-55.41512377582285
 20
57.64676369634978
 30
0.0
  0
VERTEX
  5
162A
330
161A
100
AcDbEntity
  8
CAGE COMMANDE
100
AcDbVertex
100
AcDb2dVertex
 10
-55.77037836656256
 20
57.36993499683388
 30
0.0
  0
VERTEX
  5
162B
330
161A
100
AcDbEntity
  8
CAGE COMMANDE
100
AcDbVertex
100
AcDb2dVertex
 10
-56.18927327448512
 20
57.1083372199748
 30
0.0
  0
VERTEX
  5
162C
330
161A
100
AcDbEntity
  8
CAGE COMMANDE
100
AcDbVertex
100
AcDb2dVertex
 10
-56.66793396663388
 20
56.86424164371249
 30
0.0
  0
VERTEX
  5
162D
330
161A
100
AcDbEntity
  8
CAGE COMMANDE
100
AcDbVertex
100
AcDb2dVertex
 10
-57.20199602657505
 20
56.64000861571015
 30
0.0
  0
VERTEX
  5
162E
330
161A
100
AcDbEntity
  8
CAGE COMMANDE
100
AcDbVertex
100
AcDb2dVertex
 10
-57.47949274901441
 20
56.53744482951565
 30
0.0
  0
VERTEX
  5
162F
330
161A
100
AcDbEntity
  8
CAGE COMMANDE
100
AcDbVertex
100
AcDb2dVertex
 10
-57.50595208968218
 20
56.5064511559396
 30
0.0
  0
SEQEND
  5
1630
330
161A
100
AcDbEntity
  8
CAGE COMMANDE
  0
INSERT
  5
1631
330
15DC
100
AcDbEntity
  8
CAGE COMMANDE
100
AcDbBlockReference
  2
doigt de commande right
 10
-31.0
 20
58.99999999999995
 30
0.0
  0
CIRCLE
  5
1632
330
15DC
100
AcDbEntity
  8
CAGE COMMANDE
100
AcDbCircle
 10
-31.0
 20
58.99999999999993
 30
0.0
 40
6.599409824723848
  0
LWPOLYLINE
  5
1633
330
15DC
100
AcDbEntity
  8
CAGE COMMANDE
100
AcDbPolyline
 90
       13
 70
     0
 43
0.0
 10
-31.20094299778924
 20
63.60013389353865
 10
-35.60013389353873
 20
63.60013389353865
 10
-35.96133327375014
 20
62.92905251831159
 10
-35.60013389353873
 20
58.79905700221069
 10
-35.60574533363655
 20
54.40547754655906
 10
-35.18176985957774
 20
54.01659584073112
 10
-30.79905700221076
 20
54.3998661064612
 10
-26.41117805713475
 20
54.38899950817653
 10
-26.03876609654589
 20
55.0707294954076
 10
-26.39995517693904
 20
59.20094299778916
 10
-26.39995517693904
 20
63.60013389353865
 10
-26.81858642233328
 20
63.98340415926874
 10
-31.20094299778924
 20
63.60013389353865
  0
ENDBLK
  5
1635
330
15DC
100
AcDbEntity
  8
0
100
AcDbBlockEnd
  0
BLOCK
  5
1660
330
163C
100
AcDbEntity
  8
0
100
AcDbBlockBegin
  2
528008+528009 assembly front
 70
     0
 10
0.0
 20
0.0
 30
0.0
  3
528008+528009 assembly front
  1

  0
LINE
  5
163D
330
163C
100
AcDbEntity
  8
AXIS
  6
AM_ISO08W050x2
100
AcDbLine
 10
0.0
 20
0.0
 30
0.0
 11
-11.09999999999999
 21
0.0
 31
0.0
1001
GENIUS_GENOREF_13
1005
1650
  0
LINE
  5
163E
330
163C
100
AcDbEntity
  8
CAGE COMMANDE
100
AcDbLine
 10
-12.42
 20
30.72500000000001
 30
0.0
 11
-7.48
 21
30.72500000000001
 31
0.0
  0
LWPOLYLINE
  5
163F
330
163C
100
AcDbEntity
  8
CAGE COMMANDE
100
AcDbPolyline
 90
        4
 70
     0
 43
0.0
 10
-12.42
 20
32.52500000000001
 10
-12.42
 20
30.12500000000001
 10
-7.48
 20
30.12500000000001
 10
-7.48
 20
32.52500000000001
  0
LINE
  5
1640
330
163C
100
AcDbEntity
  8
CAGE COMMANDE
100
AcDbLine
 10
-13.2
 20
47.675
 30
0.0
 11
-5.3
 21
47.675
 31
0.0
  0
LWPOLYLINE
  5
1641
330
163C
100
AcDbEntity
  8
CAGE COMMANDE
100
AcDbPolyline
 90
        4
 70
     0
 43
0.0
 10
-5.3
 20
45.875
 10
-5.3
 20
49.875
 10
-13.2
 20
49.875
 10
-13.2
 20
45.875
  0
LWPOLYLINE
  5
1642
330
163C
100
AcDbEntity
  8
CAGE COMMANDE
100
AcDbPolyline
 90
        5
 70
     0
 43
0.0
 10
-4.900000000000002
 20
58.99999999999995
 10
-4.900000000000002
 20
54.5
 10
-15.0
 20
54.5
 10
-15.0
 20
45.875
 10
0.0000000000000036
 20
45.875
  0
LWPOLYLINE
  5
1643
330
163C
100
AcDbEntity
  8
CAGE COMMANDE
100
AcDbPolyline
 90
        4
 70
     0
 43
0.0
 10
0.0
 20
27.00000000000001
 10
-13.4
 20
27.00000000000001
 10
-13.4
 20
24.25000000000002
 10
0.0
 20
24.25000000000002
  0
LWPOLYLINE
  5
1644
330
163C
100
AcDbEntity
  8
CAGE COMMANDE
100
AcDbPolyline
 90
        6
 70
     0
 43
0.0
 10
0.0
 20
16.00000000000001
 10
-5.699999999999995
 20
16.00000000000003
 10
-5.699999999999995
 20
19.50000000000003
 10
-15.0
 20
19.50000000000001
 10
-15.0
 20
32.52500000000001
 10
0.0000000000000036
 20
32.52500000000001
  0
LWPOLYLINE
  5
1645
330
163C
100
AcDbEntity
  8
CAGE COMMANDE
100
AcDbPolyline
 90
        4
 70
     1
 43
0.0
 10
-18.1
 20
58.99999999999995
 10
18.1
 20
58.99999999999995
 10
18.09999999999999
 20
-58.99999999999995
 10
-18.10000000000001
 20
-58.99999999999995
1001
GENIUS_GENREC_14
1002
{
1000
PYDIR
1011
-18.10000000000001
1021
-58.99999999999995
1031
0.0
1002
}
1002
{
1000
PXDIR
1011
18.1
1021
58.99999999999995
1031
0.0
1002
}
1002
{
1000
PORI
1011
-18.1
1021
58.99999999999995
1031
0.0
1002
}
1002
{
1000
PINS
1011
-18.1
1021
58.99999999999995
1031
0.0
1002
}
1002
{
1000
PINS2
1011
18.1
1021
-58.99999999999995
1031
0.0
1002
}
1002
{
1000
C
1070
     1
1002
}
1001
GENIUS_GENODEF_13
1002
{
1000
HIER
1070
     0
1002
}
1002
{
1000
MANEDIT
1070
     0
1002
}
1002
{
1000
NOSEL
1070
     0
1002
}
1002
{
1000
BEHIND
1070
     0
1002
}
1002
{
1000
REACTOR
1002
}
1001
GENIUS_GENOBJ-N-REC_13
1002
{
1000
OWNER
1000
GEN
1002
}
  0
LWPOLYLINE
  5
1646
330
163C
100
AcDbEntity
  8
CAGE COMMANDE
100
AcDbPolyline
 90
        5
 70
     0
 43
0.0
 10
-11.85
 20
49.875
 10
-11.85
 20
52.3
 10
-13.85
 20
52.3
 10
-13.85
 20
49.875
 10
-13.2
 20
49.875
  0
LWPOLYLINE
  5
1647
330
163C
100
AcDbEntity
  8
CAGE COMMANDE
100
AcDbPolyline
 90
        4
 70
     1
 43
0.0
 10
-13.75
 20
45.2
 10
-10.6
 20
45.2
 10
-10.6
 20
33.2
 10
-13.75
 20
33.2
1001
GENIUS_GENREC_14
1002
{
1000
PYDIR
1011
-13.75
1021
33.2
1031
0.0
1002
}
1002
{
1000
PXDIR
1011
-10.6
1021
45.2
1031
0.0
1002
}
1002
{
1000
PORI
1011
-13.75
1021
45.2
1031
0.0
1002
}
1002
{
1000
PINS
1011
-13.75
1021
45.2
1031
0.0
1002
}
1002
{
1000
PINS2
1011
-10.6
1021
33.2
1031
0.0
1002
}
1002
{
1000
C
1070
     1
1002
}
1001
GENIUS_GENODEF_13
1002
{
1000
HIER
1070
     0
1002
}
1002
{
1000
MANEDIT
1070
     0
1002
}
1002
{
1000
NOSEL
1070
     0
1002
}
1002
{
1000
BEHIND
1070
     0
1002
}
1002
{
1000
REACTOR
1002
}
1001
GENIUS_GENOBJ-N-REC_13
1002
{
1000
OWNER
1000
GEN
1002
}
  0
LINE
  5
1648
330
163C
100
AcDbEntity
  8
CAGE COMMANDE
100
AcDbLine
 10
0.0
 20
8.099999999999994
 30
0.0
 11
0.0000000000000071
 21
58.99999999999995
 31
0.0
  0
LINE
  5
1649
330
163C
100
AcDbEntity
  8
AXIS
  6
AM_ISO08W050x2
100
AcDbLine
 10
0.0
 20
0.0
 30
0.0
 11
11.09999999999999
 21
0.0
 31
0.0
1001
GENIUS_GENOREF_13
1005
1650
  0
LINE
  5
164A
330
163C
100
AcDbEntity
  8
CAGE COMMANDE
100
AcDbLine
 10
-0.0000000000000071
 20
-58.99999999999995
 30
0.0
 11
0.0
 21
-15.8
 31
0.0
  0
LINE
  5
164B
330
163C
100
AcDbEntity
  8
AXIS
  6
AM_ISO08W050x2
100
AcDbLine
 10
0.0
 20
0.0
 30
0.0
 11
0.0
 21
11.09999999999999
 31
0.0
1001
GENIUS_GENOREF_13
1005
1650
  0
LINE
  5
164C
330
163C
100
AcDbEntity
  8
AXIS
  6
AM_ISO08W050x2
100
AcDbLine
 10
0.0
 20
0.0
 30
0.0
 11
0.0
 21
-11.09999999999999
 31
0.0
1001
GENIUS_GENOREF_13
1005
1650
  0
LINE
  5
164D
330
163C
100
AcDbEntity
  8
CAGE COMMANDE
100
AcDbLine
 10
-2.999999999999994
 20
10.58300524425837
 30
0.0
 11
-2.999999999999996
 21
16.00000000000001
 31
0.0
  0
LWPOLYLINE
  5
164E
330
163C
100
AcDbEntity
  8
CAGE COMMANDE
100
AcDbPolyline
 90
        4
 70
     0
 43
0.0
 10
-6.05
 20
49.875
 10
-6.05
 20
52.3
 10
-8.05
 20
52.3
 10
-8.05
 20
49.875
  0
LWPOLYLINE
  5
164F
330
163C
100
AcDbEntity
  8
CAGE COMMANDE
100
AcDbPolyline
 90
        4
 70
     1
 43
0.0
 10
-8.75
 20
45.2
 10
-5.599999999999999
 20
45.2
 10
-5.599999999999999
 20
33.2
 10
-8.75
 20
33.2
1001
GENIUS_GENREC_14
1002
{
1000
PYDIR
1011
-8.75
1021
33.2
1031
0.0
1002
}
1002
{
1000
PXDIR
1011
-5.599999999999999
1021
45.2
1031
0.0
1002
}
1002
{
1000
PORI
1011
-8.75
1021
45.2
1031
0.0
1002
}
1002
{
1000
PINS
1011
-8.75
1021
45.2
1031
0.0
1002
}
1002
{
1000
PINS2
1011
-5.599999999999999
1021
33.2
1031
0.0
1002
}
1002
{
1000
C
1070
     1
1002
}
1001
GENIUS_GENODEF_13
1002
{
1000
HIER
1070
     0
1002
}
1002
{
1000
MANEDIT
1070
     0
1002
}
1002
{
1000
NOSEL
1070
     0
1002
}
1002
{
1000
BEHIND
1070
     0
1002
}
1002
{
1000
REACTOR
1002
}
1001
GENIUS_GENOBJ-N-REC_13
1002
{
1000
OWNER
1000
GEN
1002
}
  0
POINT
  5
1650
330
163C
100
AcDbEntity
  8
0
 60
     1
100
AcDbPoint
 10
54.3
 20
-252.383443039923
 30
0.0
1001
GENIUS_GENODEF_13
1002
{
1000
HIER
1070
    10
1002
}
1002
{
1000
MANEDIT
1070
     0
1002
}
1002
{
1000
NOSEL
1070
     0
1002
}
1002
{
1000
BEHIND
1070
     0
1002
}
1002
{
1000
REACTOR
1002
}
1001
GENIUS_GENOBJ-N-CRS_13
1002
{
1000
OWNER
1000
GEN
1002
}
1001
GENIUS_GENOENT_13
1002
{
1000
MYREF
1005
1650
1002
}
1002
{
1000
GRP
1005
0
1002
}
1001
GENIUS_GENOLIS_13
1002
{
1000
ENT
1005
164C
1005
163D
1005
164B
1005
1649
1002
}
  0
LWPOLYLINE
  5
1651
330
163C
100
AcDbEntity
  8
CAGE COMMANDE
100
AcDbPolyline
 90
        6
 70
     1
 43
0.0
 10
8.109189117126732
 20
-7.43243243243242
 10
0.7371990106479061
 20
-15.47567567567567
 42
-0.4399413450640601
 10
-0.7371990106478635
 20
-15.47567567567567
 10
-8.109189117126714
 20
-7.432432432432449
 42
-1.262220851452493
 10
10.57073170731707
 20
3.042964208123635
 42
0.5819101330833439
 10
10.57073170731707
 20
-3.042964208123635
 42
-0.1159130202889469
  0
LWPOLYLINE
  5
1652
330
163C
100
AcDbEntity
  8
CAGE COMMANDE
100
AcDbPolyline
 90
        4
 70
     1
 43
0.0
 10
-3.893525729980726
 20
-6.988594807969491
 42
-0.418996084870319
 10
-3.6093999080935
 20
-8.019424676403787
 42
1.734051842984039
 10
3.609399908093525
 20
-8.019424676403787
 42
-0.4189960848703263
 10
3.893525729980755
 20
-6.988594807969462
 42
3.849620073794559
  0
LWPOLYLINE
  5
1653
330
163C
100
AcDbEntity
  8
CAGE COMMANDE
100
AcDbPolyline
 90
       16
 70
     1
 43
0.0
 10
2.499999999999996
 20
5.0
 10
2.499999999999996
 20
5.5
 10
-2.500000000000003
 20
5.5
 10
-2.500000000000005
 20
5.0
 10
-3.500000000000001
 20
5.0
 10
-5.000000000000001
 20
3.5
 10
-5.000000000000001
 20
-3.5
 10
-3.500000000000001
 20
-5.0
 10
-2.500000000000003
 20
-5.0
 10
-2.500000000000003
 20
-5.5
 10
2.499999999999996
 20
-5.5
 10
2.499999999999996
 20
-5.000000000000014
 10
3.5
 20
-5.000000000000014
 10
5.0
 20
-3.500000000000014
 10
4.999999999999996
 20
3.5
 10
3.499999999999996
 20
5.0
  0
LWPOLYLINE
  5
1654
330
163C
100
AcDbEntity
  8
CAGE COMMANDE
100
AcDbPolyline
 90
        5
 70
     0
 43
0.0
 10
4.900000000000019
 20
58.99999999999995
 10
4.900000000000016
 20
54.5
 10
15.00000000000001
 20
54.5
 10
15.00000000000001
 20
45.875
 10
0.0000000000000071
 20
45.875
  0
LWPOLYLINE
  5
1655
330
163C
100
AcDbEntity
  8
CAGE COMMANDE
100
AcDbPolyline
 90
        4
 70
     1
 43
0.0
 10
13.75000000000001
 20
45.2
 10
10.60000000000001
 20
45.2
 10
10.60000000000001
 20
33.2
 10
13.75000000000001
 20
33.2
1001
GENIUS_GENREC_14
1002
{
1000
PYDIR
1011
-13.75
1021
33.2
1031
0.0
1002
}
1002
{
1000
PXDIR
1011
-10.6
1021
45.2
1031
0.0
1002
}
1002
{
1000
PORI
1011
-13.75
1021
45.2
1031
0.0
1002
}
1002
{
1000
PINS
1011
-13.75
1021
45.2
1031
0.0
1002
}
1002
{
1000
PINS2
1011
-10.6
1021
33.2
1031
0.0
1002
}
1002
{
1000
C
1070
     1
1002
}
1001
GENIUS_GENODEF_13
1002
{
1000
HIER
1070
     0
1002
}
1002
{
1000
MANEDIT
1070
     0
1002
}
1002
{
1000
NOSEL
1070
     0
1002
}
1002
{
1000
BEHIND
1070
     0
1002
}
1002
{
1000
REACTOR
1002
}
1001
GENIUS_GENOBJ-N-REC_13
1002
{
1000
OWNER
1000
GEN
1002
}
  0
LWPOLYLINE
  5
1656
330
163C
100
AcDbEntity
  8
CAGE COMMANDE
100
AcDbPolyline
 90
        5
 70
     0
 43
0.0
 10
11.85000000000001
 20
49.875
 10
11.85000000000001
 20
52.3
 10
13.85000000000001
 20
52.3
 10
13.85000000000001
 20
49.875
 10
13.20000000000001
 20
49.875
  0
LWPOLYLINE
  5
1657
330
163C
100
AcDbEntity
  8
CAGE COMMANDE
100
AcDbPolyline
 90
        6
 70
     0
 43
0.0
 10
0.0000000000000036
 20
16.00000000000001
 10
5.700000000000002
 20
16.00000000000003
 10
5.700000000000002
 20
19.50000000000003
 10
15.00000000000001
 20
19.50000000000001
 10
15.00000000000001
 20
32.52500000000001
 10
0.0000000000000071
 20
32.52500000000001
  0
LWPOLYLINE
  5
1658
330
163C
100
AcDbEntity
  8
CAGE COMMANDE
100
AcDbPolyline
 90
        4
 70
     0
 43
0.0
 10
0.0000000000000071
 20
27.00000000000001
 10
13.40000000000001
 20
27.00000000000001
 10
13.4
 20
24.25000000000002
 10
0.0000000000000071
 20
24.25000000000002
  0
LWPOLYLINE
  5
1659
330
163C
100
AcDbEntity
  8
CAGE COMMANDE
100
AcDbPolyline
 90
        4
 70
     0
 43
0.0
 10
5.300000000000011
 20
45.875
 10
5.300000000000011
 20
49.875
 10
13.20000000000001
 20
49.875
 10
13.20000000000001
 20
45.875
  0
LINE
  5
165A
330
163C
100
AcDbEntity
  8
CAGE COMMANDE
100
AcDbLine
 10
13.20000000000001
 20
47.675
 30
0.0
 11
5.300000000000011
 21
47.675
 31
0.0
  0
LINE
  5
165B
330
163C
100
AcDbEntity
  8
CAGE COMMANDE
100
AcDbLine
 10
3.0
 20
10.58300524425837
 30
0.0
 11
3.0
 21
16.00000000000001
 31
0.0
  0
LWPOLYLINE
  5
165C
330
163C
100
AcDbEntity
  8
CAGE COMMANDE
100
AcDbPolyline
 90
        4
 70
     1
 43
0.0
 10
8.750000000000014
 20
45.2
 10
5.600000000000012
 20
45.2
 10
5.600000000000008
 20
33.2
 10
8.750000000000007
 20
33.2
1001
GENIUS_GENREC_14
1002
{
1000
PYDIR
1011
-8.749999999999996
1021
33.2
1031
0.0
1002
}
1002
{
1000
PXDIR
1011
-5.600000000000001
1021
45.2
1031
0.0
1002
}
1002
{
1000
PORI
1011
-8.750000000000003
1021
45.2
1031
0.0
1002
}
1002
{
1000
PINS
1011
-8.750000000000003
1021
45.2
1031
0.0
1002
}
1002
{
1000
PINS2
1011
-5.599999999999997
1021
33.2
1031
0.0
1002
}
1002
{
1000
C
1070
     1
1002
}
1001
GENIUS_GENODEF_13
1002
{
1000
HIER
1070
     0
1002
}
1002
{
1000
MANEDIT
1070
     0
1002
}
1002
{
1000
NOSEL
1070
     0
1002
}
1002
{
1000
BEHIND
1070
     0
1002
}
1002
{
1000
REACTOR
1002
}
1001
GENIUS_GENOBJ-N-REC_13
1002
{
1000
OWNER
1000
GEN
1002
}
  0
LWPOLYLINE
  5
165D
330
163C
100
AcDbEntity
  8
CAGE COMMANDE
100
AcDbPolyline
 90
        4
 70
     0
 43
0.0
 10
12.42000000000001
 20
32.52500000000001
 10
12.42000000000001
 20
30.125
 10
7.480000000000011
 20
30.125
 10
7.480000000000011
 20
32.52500000000001
  0
LINE
  5
165E
330
163C
100
AcDbEntity
  8
CAGE COMMANDE
100
AcDbLine
 10
12.42000000000001
 20
30.72500000000001
 30
0.0
 11
7.480000000000011
 21
30.72500000000001
 31
0.0
  0
LWPOLYLINE
  5
165F
330
163C
100
AcDbEntity
  8
CAGE COMMANDE
100
AcDbPolyline
 90
        4
 70
     0
 43
0.0
 10
6.050000000000011
 20
49.875
 10
6.050000000000014
 20
52.3
 10
8.050000000000014
 20
52.3
 10
8.050000000000011
 20
49.875
  0
ENDBLK
  5
1661
330
163C
100
AcDbEntity
  8
0
100
AcDbBlockEnd
  0
BLOCK
  5
16A3
330
1699
100
AcDbEntity
  8
0
100
AcDbBlockBegin
  2
*D41
 70
     1
 10
0.0
 20
0.0
 30
0.0
  3
*D41
  1

  0
LINE
  5
16EF
330
1699
100
AcDbEntity
  8
QUOTATION
100
AcDbLine
 10
279.3483805507173
 20
234.0941298937841
 30
0.0
 11
361.2983805507184
 21
234.0941298937841
 31
0.0
  0
LINE
  5
16F0
330
1699
100
AcDbEntity
  8
QUOTATION
100
AcDbLine
 10
349.2983805507184
 20
274.0941298937841
 30
0.0
 11
361.2983805507184
 21
274.0941298937841
 31
0.0
  0
LINE
  5
16F1
330
1699
100
AcDbEntity
  8
QUOTATION
100
AcDbLine
 10
359.2983805507184
 20
239.0941298937841
 30
0.0
 11
359.2983805507184
 21
269.0941298937841
 31
0.0
  0
SOLID
  5
16F2
330
1699
100
AcDbEntity
  8
QUOTATION
100
AcDbTrace
 10
358.4650472173851
 20
239.0941298937841
 30
0.0
 11
360.1317138840517
 21
239.0941298937841
 31
0.0
 12
359.2983805507184
 22
234.0941298937841
 32
0.0
 13
359.2983805507184
 23
234.0941298937841
 33
0.0
  0
SOLID
  5
16F3
330
1699
100
AcDbEntity
  8
QUOTATION
100
AcDbTrace
 10
358.4650472173851
 20
269.0941298937841
 30
0.0
 11
360.1317138840517
 21
269.0941298937841
 31
0.0
 12
359.2983805507184
 22
274.0941298937841
 32
0.0
 13
359.2983805507184
 23
274.0941298937841
 33
0.0
  0
MTEXT
  5
16F4
330
1699
100
AcDbEntity
  8
QUOTATION
 62
     2
100
AcDbMText
 10
352.7983805507183
 20
254.0941298937841
 30
0.0
 40
7.0
 41
0.0
 71
     5
 72
     1
  1
40
 11
0.0000000000000001
 21
1.0
 31
0.0
 73
     1
 44
1.0
1001
ACAD
1000
MTEXTBEGIN
1070
    73
1070
     1
1070
    44
1040
1.0
1070
    74
1070
     0
1000
MTEXTEND
  0
POINT
  5
16F5
330
1699
100
AcDbEntity
  8
Defpoints
 62
     0
100
AcDbPoint
 10
277.3483805507173
 20
234.0941298937841
 30
0.0
  0
POINT
  5
16F6
330
1699
100
AcDbEntity
  8
Defpoints
 62
     0
100
AcDbPoint
 10
347.2983805507184
 20
274.0941298937841
 30
0.0
  0
POINT
  5
16F7
330
1699
100
AcDbEntity
  8
Defpoints
 62
     0
100
AcDbPoint
 10
359.2983805507184
 20
274.0941298937841
 30
0.0
  0
ENDBLK
  5
16A4
330
1699
100
AcDbEntity
  8
0
100
AcDbBlockEnd
  0
ENDSEC
  0
SECTION
  2
ENTITIES
  0
INSERT
  5
A92
330
1F
100
AcDbEntity
  8
0
100
AcDbBlockReference
  2
d31 d4p5 door drilling
 10
555.830042611522
 20
89.33049245864269
 30
0.0
  0
DIMENSION
  5
A93
330
1F
100
AcDbEntity
  8
QUOTATION
100
AcDbDimension
  2
*D14
 10
554.2854811020388
 20
112.6943904619984
 30
0.0
 11
588.257720317211
 21
129.4067154421004
 31
0.0
 70
   163
  1
4x <>
 71
     5
 42
-1.0
  3
AM_ISO$3
100
AcDbDiametricDimension
 15
557.3746041210052
 25
115.9665944552871
 35
0.0
 40
0.0
1001
GENIUS_GENDTOL_13
1000

1000
h7
1000

1040
0.0
1001
ACAD
1000
DSTYLE
1002
{
1070
    40
1040
2.0
1070
   274
1070
     2
1070
   271
1070
     1
1002
}
  0
DIMENSION
  5
A94
330
1F
100
AcDbEntity
  8
QUOTATION
100
AcDbDimension
  2
*D15
 10
544.5705321601101
 20
78.6781019102942
 30
0.0
 11
586.9906041653189
 21
110.0123187495944
 31
0.0
 70
   163
  1
<>
 71
     5
 42
-1.0
  3
AM_ISO$3
100
AcDbDiametricDimension
 15
567.0895530629338
 25
99.9828830069911
 35
0.0
 40
0.0
1001
GENIUS_GENDTOL_13
1000

1000
h7
1000

1040
0.0
1001
ACAD
1000
DSTYLE
1002
{
1070
    40
1040
2.0
1070
   274
1070
     2
1070
   271
1070
     1
1002
}
  0
MTEXT
  5
A95
330
1F
100
AcDbEntity
  8
TEXT
100
AcDbMText
 10
519.6123365512666
 20
159.9064017255523
 30
0.0
 40
7.0
 41
77.54506888874096
 71
     1
 72
     5
  1
DOOR DRILLING
 73
     1
 44
1.0
1001
ACAD
1000
MTEXTBEGIN
1070
    73
1070
     1
1070
    44
1040
1.0
1070
    74
1070
     0
1000
MTEXTEND
  0
DIMENSION
  5
A96
330
1F
100
AcDbEntity
  8
QUOTATION
100
AcDbDimension
  2
*D16
 10
580.830042611522
 20
45.25297488840588
 30
0.0
 11
555.830042611522
 21
51.75297488840588
 31
0.0
 70
    32
  1
<>
 71
     5
 42
-1.0
  3
AM_ISO
100
AcDbAlignedDimension
 13
530.830042611522
 23
89.33049245864269
 33
0.0
 14
580.830042611522
 24
89.33049245864269
 34
0.0
100
AcDbRotatedDimension
1001
GENIUS_GENDTOL_13
1000

1000
h7
1000

1040
0.0
1001
ACAD
1000
DSTYLE
1002
{
1070
    40
1040
2.0
1070
   274
1070
     2
1070
   271
1070
     1
1002
}
  0
DIMENSION
  5
A97
330
1F
100
AcDbEntity
  8
QUOTATION
100
AcDbDimension
  2
*D17
 10
517.1271956286881
 20
114.3304924586427
 30
0.0
 11
510.6271956286881
 21
89.3304924586428
 31
0.0
 70
    32
  1
<>
 71
     5
 42
-1.0
  3
AM_ISO
100
AcDbAlignedDimension
 13
555.830042611522
 23
64.33049245864269
 33
0.0
 14
555.830042611522
 24
114.3304924586427
 34
0.0
 50
270.0
100
AcDbRotatedDimension
1001
GENIUS_GENDTOL_13
1000

1000
h7
1000

1040
0.0
1001
ACAD
1000
DSTYLE
1002
{
1070
    40
1040
2.0
1070
   274
1070
     2
1070
   271
1070
     1
1002
}
  0
DIMENSION
  5
ECD
330
1F
100
AcDbEntity
  8
QUOTATION
100
AcDbDimension
  2
*D18
 10
113.8393255156742
 20
187.9304924586603
 30
0.0
 11
42.33932551567447
 21
194.4304924586603
 31
0.0
 70
    32
 71
     5
 42
-1.0
  3
AM_ISO
100
AcDbAlignedDimension
 13
-29.16067448432531
 23
117.8304924586603
 33
0.0
 14
113.8393255156742
 24
163.9304924586603
 34
0.0
 50
0.0000000000000114
100
AcDbRotatedDimension
1001
ACAD
1000
DSTYLE
1002
{
1070
    40
1040
2.0
1002
}
  0
DIMENSION
  5
F0E
330
1F
100
AcDbEntity
  8
QUOTATION
100
AcDbDimension
  2
*D19
 10
-129.2981737975444
 20
186.5336188377205
 30
0.0
 11
-94.79817379754308
 21
193.0336188377205
 31
0.0
 70
    32
 71
     5
 42
-1.0
  3
AM_ISO
100
AcDbAlignedDimension
 13
-60.29817379754172
 23
125.8304924586604
 33
0.0
 14
-129.2981737975444
 24
89.33049245866037
 34
0.0
100
AcDbRotatedDimension
1001
ACAD
1000
DSTYLE
1002
{
1070
    40
1040
2.0
1002
}
  0
DIMENSION
  5
F4F
330
1F
100
AcDbEntity
  8
QUOTATION
100
AcDbDimension
  2
*D20
 10
186.5549229253747
 20
151.0057298785632
 30
0.0
 11
180.0542339489967
 21
89.3304924586604
 31
0.0
 70
    32
 71
     5
 42
-1.0
  3
AM_ISO
100
AcDbAlignedDimension
 13
200.6983805507214
 23
27.65525503875756
 33
0.0
 14
200.6983805507214
 24
151.0057298785632
 34
0.0
 50
90.00000000000003
100
AcDbRotatedDimension
1001
ACAD
1000
DSTYLE
1002
{
1070
    40
1040
2.0
1070
   271
1070
     1
1002
}
  0
DIMENSION
  5
F90
330
1F
100
AcDbEntity
  8
QUOTATION
100
AcDbDimension
  2
*D21
 10
166.5549229253748
 20
21.88049245866042
 30
0.0
 11
160.0549229253748
 21
89.33049245866042
 31
0.0
 70
    32
 71
     5
 42
-1.0
  3
AM_ISO
100
AcDbAlignedDimension
 13
232.7983805507278
 23
156.7804924586603
 33
0.0
 14
232.7983805507278
 24
21.8804924586604
 34
0.0
 50
90.0
100
AcDbRotatedDimension
1001
ACAD
1000
DSTYLE
1002
{
1070
    40
1040
2.0
1002
}
  0
DIMENSION
  5
FD1
330
1F
100
AcDbEntity
  8
QUOTATION
100
AcDbDimension
  2
*D22
 10
146.5549229253747
 20
14.7304924586604
 30
0.0
 11
140.0525421924278
 21
89.33049245866042
 31
0.0
 70
    32
 71
     5
 42
-1.0
  3
AM_ISO
100
AcDbAlignedDimension
 13
232.7983805507278
 23
163.9304924586604
 33
0.0
 14
232.7983805507278
 24
14.73049245866038
 34
0.0
 50
90.00000000000003
100
AcDbRotatedDimension
1001
ACAD
1000
DSTYLE
1002
{
1070
    40
1040
2.0
1002
}
  0
DIMENSION
  5
1014
330
1F
100
AcDbEntity
  8
QUOTATION
100
AcDbDimension
  2
*D23
 10
232.7983805507278
 20
-2.119507541339632
 30
0.0
 11
214.2483805507214
 21
4.380492458660366
 31
0.0
 70
    32
 71
     5
 42
-1.0
  3
AM_ISO
100
AcDbAlignedDimension
 13
195.6983805507149
 23
29.53049245866036
 33
0.0
 14
232.7983805507278
 24
21.8804924586604
 34
0.0
 50
0.0000000000001132
100
AcDbRotatedDimension
1001
ACAD
1000
DSTYLE
1002
{
1070
    40
1040
2.0
1002
}
  0
DIMENSION
  5
1055
330
1F
100
AcDbEntity
  8
QUOTATION
100
AcDbDimension
  2
*D24
 10
270.9983805507278
 20
-2.119507541339626
 30
0.0
 11
251.8983805507279
 21
4.381181435038326
 31
0.0
 70
    32
 71
     5
 42
-1.0
  3
AM_ISO
100
AcDbAlignedDimension
 13
232.7983805507278
 23
21.8804924586604
 33
0.0
 14
270.9983805507278
 24
21.8804924586604
 34
0.0
 50
0.0000000000001132
100
AcDbRotatedDimension
1001
ACAD
1000
DSTYLE
1002
{
1070
    40
1040
2.0
1002
}
  0
DIMENSION
  5
10A0
330
1F
100
AcDbEntity
  8
QUOTATION
100
AcDbDimension
  2
*D25
 10
326.1983805507185
 20
-2.119507541339542
 30
0.0
 11
298.5983805507231
 21
4.38118143503841
 31
0.0
 70
    32
 71
     5
 42
-1.0
  3
AM_ISO
100
AcDbAlignedDimension
 13
270.9983805507278
 23
21.8804924586604
 33
0.0
 14
326.1983805507185
 24
89.33049245862504
 34
0.0
 50
0.0000000000001132
100
AcDbRotatedDimension
1001
ACAD
1000
DSTYLE
1002
{
1070
    40
1040
2.0
1070
   271
1070
     1
1002
}
  0
DIMENSION
  5
10EA
330
1F
100
AcDbEntity
  8
QUOTATION
100
AcDbDimension
  2
*D26
 10
344.2983805507184
 20
-2.119507541339507
 30
0.0
 11
335.2483805507185
 21
4.380492458660492
 31
0.0
 70
    32
 71
     5
 42
-1.0
  3
AM_ISO
100
AcDbAlignedDimension
 13
326.1983805507185
 23
89.33049245862504
 33
0.0
 14
344.2983805507184
 24
30.33049245864277
 34
0.0
 50
0.0000000000001132
100
AcDbRotatedDimension
1001
ACAD
1000
DSTYLE
1002
{
1070
    40
1040
2.0
1070
   271
1070
     1
1002
}
  0
DIMENSION
  5
1133
330
1F
100
AcDbEntity
  8
QUOTATION
100
AcDbDimension
  2
*D27
 10
344.2983805507185
 20
184.8230407323017
 30
0.0
 11
278.8749050411079
 21
184.8230407323017
 31
0.0
 70
   160
 71
     5
 42
-1.0
  3
AM_ISO
100
AcDbAlignedDimension
 13
195.6983805507149
 23
147.7304924586603
 33
0.0
 14
344.2983805507185
 24
148.3304924586426
 34
0.0
 50
0.0000000000000114
100
AcDbRotatedDimension
1001
ACAD
1000
DSTYLE
1002
{
1070
    40
1040
2.0
1070
   271
1070
     1
1002
}
  0
DIMENSION
  5
1174
330
1F
100
AcDbEntity
  8
QUOTATION
100
AcDbDimension
  2
*D28
 10
452.6983805507255
 20
-21.70313287052744
 30
0.0
 11
389.4483805507221
 21
-15.20244389414949
 31
0.0
 70
    32
 71
     5
 42
-1.0
  3
AM_ISO
100
AcDbAlignedDimension
 13
326.1983805507185
 23
89.33049245864269
 33
0.0
 14
452.6983805507255
 24
89.33049245862457
 34
0.0
 50
0.0000000000001132
100
AcDbRotatedDimension
1001
ACAD
1000
DSTYLE
1002
{
1070
    40
1040
2.0
1070
   271
1070
     1
1002
}
  0
DIMENSION
  5
11B5
330
1F
100
AcDbEntity
  8
QUOTATION
100
AcDbDimension
  2
*D29
 10
383.3730845367123
 20
335.6941298937841
 30
0.0
 11
383.3730845367122
 21
278.5832257843676
 31
0.0
 70
   160
 71
     5
 42
-1.0
  3
AM_ISO
100
AcDbAlignedDimension
 13
277.3483805507173
 23
234.0941298937841
 33
0.0
 14
334.1983805507183
 24
335.6941298937841
 34
0.0
 50
90.0
100
AcDbRotatedDimension
1001
ACAD
1000
DSTYLE
1002
{
1070
    40
1040
2.0
1070
   271
1070
     1
1002
}
  0
DIMENSION
  5
11EF
330
1F
100
AcDbEntity
  8
QUOTATION
100
AcDbDimension
  2
*D30
 10
268.9031882846014
 20
155.4166121970671
 30
0.0
 11
295.231356138545
 21
167.5460213687761
 31
0.0
 70
   163
 71
     5
 42
-1.0
  3
AM_ISO$3
100
AcDbDiametricDimension
 15
273.0935728168542
 25
158.1443727202537
 35
0.0
 40
0.0
1001
ACAD
1000
DSTYLE
1002
{
1070
    40
1040
2.0
1070
   271
1070
     1
1002
}
  0
DIMENSION
  5
1237
330
1F
100
AcDbEntity
  8
QUOTATION
100
AcDbDimension
  2
*D31
 10
184.1570061048446
 20
238.0941298937828
 30
0.0
 11
177.6570061048446
 21
252.8441298937829
 31
0.0
 70
    32
 71
     5
 42
-1.0
  3
AM_ISO
100
AcDbAlignedDimension
 13
226.4483805507172
 23
234.0941298937841
 33
0.0
 14
195.6983805507213
 24
238.0941298937828
 34
0.0
 50
90.00000000000003
100
AcDbRotatedDimension
1001
ACAD
1000
DSTYLE
1002
{
1070
    40
1040
2.0
1070
   271
1070
     1
1002
}
  0
INSERT
  5
12BC
330
1F
100
AcDbEntity
  8
0
100
AcDbBlockReference
  2
38613004 basic device back
 10
195.6983805507213
 20
238.0941298937828
 30
0.0
  0
INSERT
  5
1318
330
1F
100
AcDbEntity
  8
0
100
AcDbBlockReference
  2
38613004 basic device front
 10
195.6983805507149
 20
88.63049245866035
 30
0.0
  0
INSERT
  5
1333
330
1F
100
AcDbEntity
  8
0
100
AcDbBlockReference
  2
38613004 basic device right
 10
113.8393255156742
 20
89.33049245866037
 30
0.0
  0
INSERT
  5
134B
330
1F
100
AcDbEntity
  8
TEXT
370
     0
100
AcDbBlockReference
 66
     1
  2
REFERENCE
 10
53.45257183150079
 20
315.6473534303051
 30
0.0
  0
ATTRIB
  5
134C
330
134B
100
AcDbEntity
  8
0
100
AcDbText
 10
37.73002847889963
 20
313.1997378233687
 30
0.0
 40
5.0
  1
3861 3004
  7
reference
 72
     4
 11
53.45257183150079
 21
315.6473534303051
 31
0.0
100
AcDbAttribute
  2
00000000
 70
     0
  0
SEQEND
  5
134D
330
134B
100
AcDbEntity
  8
TEXT
370
     0
  0
TEXT
  5
134E
330
1F
100
AcDbEntity
  8
TEXT
100
AcDbText
 10
-17.47983310635283
 20
288.0068637756508
 30
0.0
 40
8.0
  1
%%uAL dimensions in "MM"
  7
TEXTE
100
AcDbText
  0
INSERT
  5
1373
330
1F
100
AcDbEntity
  8
TEXT
370
     0
100
AcDbBlockReference
 66
     1
  2
REFERENCE
 10
95.45257183150079
 20
315.6473534303051
 30
0.0
  0
ATTRIB
  5
1374
330
1373
100
AcDbEntity
  8
0
100
AcDbText
 10
79.73002847889964
 20
313.1997378233687
 30
0.0
 40
5.0
  1
3861 3006
  7
reference
 72
     4
 11
95.45257183150079
 21
315.6473534303051
 31
0.0
100
AcDbAttribute
  2
00000000
 70
     0
  0
SEQEND
  5
1375
330
1373
100
AcDbEntity
  8
TEXT
370
     0
  0
DIMENSION
  5
1698
330
1F
100
AcDbEntity
  8
QUOTATION
100
AcDbDimension
  2
*D41
 10
359.2983805507184
 20
274.0941298937841
 30
0.0
 11
352.7983805507183
 21
254.0941298937841
 31
0.0
 70
    32
 71
     5
 42
-1.0
  3
AM_ISO
100
AcDbAlignedDimension
 13
277.3483805507173
 23
234.0941298937841
 33
0.0
 14
347.2983805507184
 24
274.0941298937841
 34
0.0
 50
90.0
100
AcDbRotatedDimension
1001
ACAD
1000
DSTYLE
1002
{
1070
    40
1040
2.0
1070
   271
1070
     1
1002
}
  0
ENDSEC
  0
SECTION
  2
OBJECTS
  0
DICTIONARY
  5
C
330
0
100
AcDbDictionary
281
     1
  3
ACAD_COLOR
350
1828
  3
ACAD_GROUP
350
D
  3
ACAD_LAYOUT
350
1A
  3
ACAD_MATERIAL
350
1827
  3
ACAD_MLINESTYLE
350
17
  3
ACAD_PLOTSETTINGS
350
19
  3
ACAD_PLOTSTYLENAME
350
E
  3
ACDBHEADERROUNDTRIPXREC
350
18C6
  3
AcDbVariableDictionary
350
2C0
  3
AcmDictionary
350
45
  3
AMAcad
350
18C1
  3
AMG
350
41
  3
AMGSNAPSETTINGS
350
D6
  3
DWGPROPS
350
18C5
  0
DICTIONARY
  5
2B6
330
1F
100
AcDbDictionary
280
     1
281
     1
  3
ACAD_INDEX
360
1352
  3
ACAD_LAYOUTSELFREF
360
17EF
  0
DICTIONARY
  5
1379
330
1B
100
AcDbDictionary
280
     1
281
     1
  3
ACAD_LAYOUTSELFREF
360
17EE
  0
DICTIONARY
  5
137B
330
23
100
AcDbDictionary
280
     1
281
     1
  3
ACAD_LAYOUTSELFREF
360
17F0
  0
DICTIONARY
  5
1828
102
{ACAD_REACTORS
330
C
102
}
330
C
100
AcDbDictionary
281
     1
  0
DICTIONARY
  5
D
102
{ACAD_REACTORS
330
C
102
}
330
C
100
AcDbDictionary
281
     1
  0
DICTIONARY
  5
1A
102
{ACAD_REACTORS
330
C
102
}
330
C
100
AcDbDictionary
281
     1
  3
Model
350
22
  3
Présentation1
350
1E
  3
Présentation2
350
26
  0
DICTIONARY
  5
1827
102
{ACAD_REACTORS
330
C
102
}
330
C
100
AcDbDictionary
281
     1
  0
DICTIONARY
  5
17
102
{ACAD_REACTORS
330
C
102
}
330
C
100
AcDbDictionary
281
     1
  3
Standard
350
18
  0
DICTIONARY
  5
19
102
{ACAD_REACTORS
330
C
102
}
330
C
100
AcDbDictionary
281
     1
  0
ACDBDICTIONARYWDFLT
  5
E
102
{ACAD_REACTORS
330
C
102
}
330
C
100
AcDbDictionary
281
     1
  3
Normal
350
F
100
AcDbDictionaryWithDefault
340
F
  0
DICTIONARY
  5
18C6
102
{ACAD_REACTORS
330
C
102
}
330
C
100
AcDbDictionary
281
     1
  3
COLORDICT
350
18C8
  3
MATERIALDICT
350
18C7
  0
DICTIONARY
  5
2C0
102
{ACAD_REACTORS
330
C
102
}
330
C
100
AcDbDictionary
281
     1
  3
DIMASSOC
350
2C3
  3
HIDETEXT
350
2C2
  3
INDEXCTL
350
2C1
  3
PROJECTNAME
350
18C3
  0
DICTIONARY
  5
45
102
{ACAD_REACTORS
330
C
102
}
330
C
100
AcDbDictionary
281
     1
  3
AcmStdDictionary
350
4A
  0
DICTIONARY
  5
18C1
102
{ACAD_REACTORS
330
C
102
}
330
C
100
AcDbDictionary
281
     1
  3
AM_LOADER
350
18C2
  0
DICTIONARY
  5
41
102
{ACAD_REACTORS
330
C
102
}
330
C
100
AcDbDictionary
281
     1
  0
DICTIONARY
  5
D6
102
{ACAD_REACTORS
330
C
102
}
330
C
100
AcDbDictionary
281
     1
  0
XRECORD
  5
18C5
102
{ACAD_REACTORS
330
C
102
}
330
C
100
AcDbXrecord
280
     1
  1
DWGPROPS COOKIE
  2

  3

  4

  6

  7

  8

  9

300
AmdtFileType=84
301
=
302
=
303
=
304
=
305
=
306
=
307
=
308
=
309
=
 40
0.2776940509259259
 41
2452660.400300382
 42
2453360.613131516
  1

 90
        1
  0
DICTIONARY
  5
1352
102
{ACAD_REACTORS
330
2B6
102
}
330
2B6
100
AcDbDictionary
281
     1
  3
*A1
350
1353
  0
XRECORD
  5
17EF
102
{ACAD_REACTORS
330
2B6
102
}
330
2B6
100
AcDbXrecord
280
     1
340
1F
  0
XRECORD
  5
17EE
102
{ACAD_REACTORS
330
1379
102
}
330
1379
100
AcDbXrecord
280
     1
340
1B
  0
XRECORD
  5
17F0
102
{ACAD_REACTORS
330
137B
102
}
330
137B
100
AcDbXrecord
280
     1
340
23
  0
LAYOUT
  5
22
102
{ACAD_XDICTIONARY
360
18CB
102
}
102
{ACAD_REACTORS
330
1A
102
}
330
1A
100
AcDbPlotSettings
  1

  2
\\SERVEPI1\HP LaserJet 8000 Series PS EPI
  4

  6

 40
0.0
 41
0.0
 42
0.0
 43
0.0
 44
0.0
 45
0.0
 46
0.0
 47
0.0
 48
0.0
 49
0.0
140
0.0
141
0.0
142
1.0
143
1.0
 70
  1712
 72
     0
 73
     0
 74
     0
  7
A4.ctb
 75
     0
147
1.0
148
0.0
149
0.0
100
AcDbLayout
  1
Model
 70
     1
 71
     0
 10
0.0
 20
0.0
 11
12.0
 21
9.0
 12
0.0
 22
0.0
 32
0.0
 14
0.0
 24
0.0
 34
0.0
 15
0.0
 25
0.0
 35
0.0
146
0.0
 13
0.0
 23
0.0
 33
0.0
 16
1.0
 26
0.0
 36
0.0
 17
0.0
 27
1.0
 37
0.0
 76
     0
330
1F
  0
LAYOUT
  5
1E
102
{ACAD_XDICTIONARY
360
18C9
102
}
102
{ACAD_REACTORS
330
1A
102
}
330
1A
100
AcDbPlotSettings
  1

  2
\\SERVEPI1\HP LaserJet 8000 Series PS EPI
  4

  6

 40
0.0
 41
0.0
 42
0.0
 43
0.0
 44
0.0
 45
0.0
 46
0.0
 47
0.0
 48
0.0
 49
0.0
140
0.0
141
0.0
142
1.0
143
1.0
 70
   688
 72
     0
 73
     0
 74
     5
  7
A4.ctb
 75
    16
147
1.0
148
0.0
149
0.0
100
AcDbLayout
  1
Présentation1
 70
     1
 71
     1
 10
0.0
 20
0.0
 11
420.0
 21
297.0
 12
0.0
 22
0.0
 32
0.0
 14
1.000000000000000E+20
 24
1.000000000000000E+20
 34
1.000000000000000E+20
 15
-1.000000000000000E+20
 25
-1.000000000000000E+20
 35
-1.000000000000000E+20
146
0.0
 13
0.0
 23
0.0
 33
0.0
 16
1.0
 26
0.0
 36
0.0
 17
0.0
 27
1.0
 37
0.0
 76
     0
330
1B
  0
LAYOUT
  5
26
102
{ACAD_XDICTIONARY
360
18CD
102
}
102
{ACAD_REACTORS
330
1A
102
}
330
1A
100
AcDbPlotSettings
  1

  2
\\SERVEPI1\HP LaserJet 8000 Series PS EPI
  4

  6

 40
0.0
 41
0.0
 42
0.0
 43
0.0
 44
0.0
 45
0.0
 46
0.0
 47
0.0
 48
0.0
 49
0.0
140
0.0
141
0.0
142
1.0
143
1.0
 70
   688
 72
     0
 73
     0
 74
     5
  7
A4.ctb
 75
    16
147
1.0
148
0.0
149
0.0
100
AcDbLayout
  1
Présentation2
 70
     1
 71
     2
 10
0.0
 20
0.0
 11
12.0
 21
9.0
 12
0.0
 22
0.0
 32
0.0
 14
0.0
 24
0.0
 34
0.0
 15
0.0
 25
0.0
 35
0.0
146
0.0
 13
0.0
 23
0.0
 33
0.0
 16
1.0
 26
0.0
 36
0.0
 17
0.0
 27
1.0
 37
0.0
 76
     0
330
23
  0
MLINESTYLE
  5
18
102
{ACAD_REACTORS
330
17
102
}
330
17
100
AcDbMlineStyle
  2
STANDARD
 70
     0
  3

 62
   256
 51
90.0
 52
90.0
 71
     2
 49
0.5
 62
   256
  6
BYLAYER
 49
-0.5
 62
   256
  6
BYLAYER
  0
ACDBPLACEHOLDER
  5
F
102
{ACAD_REACTORS
330
E
102
}
330
E
  0
XRECORD
  5
18C8
102
{ACAD_REACTORS
330
18C6
102
}
330
18C6
100
AcDbXrecord
280
     1
340
1828
  0
XRECORD
  5
18C7
102
{ACAD_REACTORS
330
18C6
102
}
330
18C6
100
AcDbXrecord
280
     1
340
1827
  0
DICTIONARYVAR
  5
2C3
102
{ACAD_REACTORS
330
2C0
102
}
330
2C0
100
DictionaryVariables
280
     0
  1
2
  0
DICTIONARYVAR
  5
2C2
102
{ACAD_REACTORS
330
2C0
102
}
330
2C0
100
DictionaryVariables
280
     0
  1
1
  0
DICTIONARYVAR
  5
2C1
102
{ACAD_REACTORS
330
2C0
102
}
330
2C0
100
DictionaryVariables
280
     0
  1
1
  0
DICTIONARYVAR
  5
18C3
102
{ACAD_REACTORS
330
2C0
102
}
330
2C0
100
DictionaryVariables
280
     0
  1

  0
DICTIONARY
  5
4A
102
{ACAD_REACTORS
330
45
102
}
330
45
100
AcDbDictionary
281
     1
  0
AMLOADER
  5
18C2
102
{ACAD_REACTORS
330
18C1
102
}
330
18C1
100
AMLoader
 90
        1
 70
     4
 70
     0
 70
  1115
 70
  1115
280
     0
  0
LAYER_INDEX
  5
1353
102
{ACAD_REACTORS
330
1352
102
}
330
1352
100
AcDbIndex
 40
2453360.613131516
100
AcDbLayerIndex
  8
0
360
1354
 90
        4
  8
BASIC DEVICE
360
1355
 90
        0
  8
AXIS
360
1356
 90
        0
  8
POINT D'ACCROCHAGE
360
1357
 90
        0
  8
COVER FUSE
360
1358
 90
        0
  8
INTER PHASE SCREEN
360
1359
 90
        0
  8
G2 EXTERN_HANDLE
360
135A
 90
        0
  8
G2 MOVING
360
135B
 90
        0
  8
DEVICE FIXING HOLES
360
135C
 90
        0
  8
HANDLE FIXING HOLES
360
135D
 90
        0
  8
Defpoints
360
135E
 90
        0
  8
TEXT
360
135F
 90
        4
  8
QUOTATION
360
1360
 90
       19
  8
CAGE COMMANDE
360
1669
 90
        0
  0
DICTIONARY
  5
18CB
330
22
100
AcDbDictionary
280
     1
281
     1
  3
ACAD_XREC_ROUNDTRIP
360
18CC
  0
DICTIONARY
  5
18C9
330
1E
100
AcDbDictionary
280
     1
281
     1
  3
ACAD_XREC_ROUNDTRIP
360
18CA
  0
DICTIONARY
  5
18CD
330
26
100
AcDbDictionary
280
     1
281
     1
  3
ACAD_XREC_ROUNDTRIP
360
18CE
  0
IDBUFFER
  5
1354
330
0
100
AcDbIdBuffer
330
A92
330
12BC
330
1318
330
1333
  0
IDBUFFER
  5
1355
330
0
100
AcDbIdBuffer
  0
IDBUFFER
  5
1356
330
0
100
AcDbIdBuffer
  0
IDBUFFER
  5
1357
330
0
100
AcDbIdBuffer
  0
IDBUFFER
  5
1358
330
0
100
AcDbIdBuffer
  0
IDBUFFER
  5
1359
330
0
100
AcDbIdBuffer
  0
IDBUFFER
  5
135A
330
0
100
AcDbIdBuffer
  0
IDBUFFER
  5
135B
330
0
100
AcDbIdBuffer
  0
IDBUFFER
  5
135C
330
0
100
AcDbIdBuffer
  0
IDBUFFER
  5
135D
330
0
100
AcDbIdBuffer
  0
IDBUFFER
  5
135E
330
0
100
AcDbIdBuffer
  0
IDBUFFER
  5
135F
330
0
100
AcDbIdBuffer
330
A95
330
134B
330
134E
330
1373
  0
IDBUFFER
  5
1360
330
0
100
AcDbIdBuffer
330
A93
330
A94
330
A96
330
A97
330
ECD
330
F0E
330
F4F
330
F90
330
FD1
330
1014
330
1055
330
10A0
330
10EA
330
1133
330
1174
330
11B5
330
11EF
330
1237
330
1698
  0
IDBUFFER
  5
1669
330
0
100
AcDbIdBuffer
  0
XRECORD
  5
18CC
102
{ACAD_REACTORS
330
18CB
102
}
330
18CB
100
AcDbXrecord
280
     1
102
SHADEPLOT
 70
     0
102
SHADEPLOTRESLEVEL
 70
     2
102
SHADEPLOTCUSTOMDPI
 70
   300
  0
XRECORD
  5
18CA
102
{ACAD_REACTORS
330
18C9
102
}
330
18C9
100
AcDbXrecord
280
     1
102
SHADEPLOT
 70
     0
102
SHADEPLOTRESLEVEL
 70
     2
102
SHADEPLOTCUSTOMDPI
 70
   300
  0
XRECORD
  5
18CE
102
{ACAD_REACTORS
330
18CD
102
}
330
18CD
100
AcDbXrecord
280
     1
102
SHADEPLOT
 70
     0
102
SHADEPLOTRESLEVEL
 70
     2
102
SHADEPLOTCUSTOMDPI
 70
   300
  0
ENDSEC
  0
EOF
